<?xml version="1.0" standalone="no"?>
<!DOCTYPE svg PUBLIC "-//W3C//DTD SVG 1.1//EN" "http://www.w3.org/Graphics/SVG/1.1/DTD/svg11.dtd" >
<svg>
<metadata>
Created by FontForge 20090914 at Thu Feb 23 23:12:34 2012
 By root
Copyright 1990-1993 Bitstream Inc.  All rights reserved.
</metadata>
<defs>
<font id="HandelGothicBT-Regular" horiz-adv-x="1024" >
  <font-face 
    font-family="HandelGothic BT"
    font-weight="400"
    font-stretch="semi-expanded"
    units-per-em="2048"
    panose-1="4 3 8 5 3 11 2 2 12 3"
    ascent="1638"
    descent="-410"
    x-height="1079"
    cap-height="1470"
    bbox="-193 -483 2726 1972"
    underline-thickness="256"
    underline-position="-97"
    unicode-range="U+0020-U+F002"
  />
<missing-glyph horiz-adv-x="1229" 
d="M102 -362v1806h1024v-1806h-1024zM217 -248h795v1577h-795v-1577z" />
    <glyph glyph-name=".notdef" horiz-adv-x="1229" 
d="M102 -362v1806h1024v-1806h-1024zM217 -248h795v1577h-795v-1577z" />
    <glyph glyph-name=".null" horiz-adv-x="0" 
 />
    <glyph glyph-name="nonmarkingreturn" horiz-adv-x="793" 
 />
    <glyph glyph-name="space" unicode=" " horiz-adv-x="793" 
 />
    <glyph glyph-name="exclam" unicode="!" horiz-adv-x="639" 
d="M164 1470h309v-1093h-309v1093zM166 264h307v-264h-307v264z" />
    <glyph glyph-name="quotedbl" unicode="&#x22;" horiz-adv-x="678" 
d="M406 1438h192v-559h-192v559zM80 1438h192v-559h-192v559z" />
    <glyph glyph-name="numbersign" unicode="#" horiz-adv-x="1575" 
d="M709 848l-88 -244h251l86 244h-249zM709 1464h221l-146 -415h242l148 415h221l-148 -415h283l-74 -201h-280l-84 -242h290l-71 -200h-291l-148 -416h-221l148 416h-244l-149 -416h-220l146 416h-287l76 200h282l86 242h-299l74 201h297z" />
    <glyph glyph-name="dollar" unicode="$" horiz-adv-x="1538" 
d="M700 854v354h-69q-114 0 -175 -47.5t-61 -136.5q0 -81 50.5 -125.5t142.5 -44.5h112zM143 260h557v334h-153q-232 0 -347.5 106.5t-115.5 321.5q0 232 125 341.5t391 109.5h100v133h117v-133h549v-265h-549v-354h166q254 0 361.5 -95.5t107.5 -318.5q0 -227 -124 -333.5
t-390 -106.5h-121v-145h-117v145h-557v260zM817 594v-334h86q122 0 180 43.5t58 134.5q0 85 -47.5 120.5t-169.5 35.5h-107z" />
    <glyph glyph-name="percent" unicode="%" horiz-adv-x="1886" 
d="M1458 158q89 0 132.5 56.5t43.5 172.5t-43.5 173.5t-132.5 57.5t-133.5 -58t-44.5 -173t44.5 -172t133.5 -57zM1456 -14q-199 0 -295 98.5t-96 302.5q0 206 95.5 303.5t295.5 97.5t294.5 -97.5t94.5 -303.5t-94.5 -303.5t-294.5 -97.5zM569 -2l572 1470h159l-571 -1470
h-160zM426 672q-194 0 -288.5 99t-94.5 302q0 206 94.5 304t294.5 98t295.5 -98t95.5 -304q0 -207 -96 -304t-301 -97zM434 844q89 0 132.5 57t43.5 172q0 116 -43.5 174t-132.5 58q-88 0 -132 -58t-44 -174q0 -115 43.5 -172t132.5 -57z" />
    <glyph glyph-name="ampersand" unicode="&#x26;" horiz-adv-x="1649" 
d="M1405 604q-73 -322 -257 -476.5t-497 -154.5q-249 0 -392.5 108t-143.5 294q0 111 49.5 197t148.5 147q-99 61 -149.5 153t-50.5 209q0 183 117 286t327 103h496v-272h-418q-101 0 -160 -45.5t-59 -120.5q0 -84 48.5 -130t137.5 -46h100v-252h-96q-79 0 -127.5 -47.5
t-48.5 -126.5q0 -88 64.5 -141t173.5 -53q166 0 267.5 90.5t145.5 277.5h-207v252h713v-252h-182z" />
    <glyph glyph-name="quotesingle" unicode="'" horiz-adv-x="352" 
d="M80 1438h192v-559h-192v559z" />
    <glyph glyph-name="parenleft" unicode="(" horiz-adv-x="711" 
d="M633 1470q-126 -204 -188 -418.5t-62 -447.5t62 -447.5t188 -418.5h-195q-158 218 -239.5 438.5t-81.5 427.5t81.5 427.5t239.5 438.5h195z" />
    <glyph glyph-name="parenright" unicode=")" horiz-adv-x="711" 
d="M80 1470h192q158 -218 240 -438.5t82 -427.5t-82 -427.5t-240 -438.5h-192q125 203 186.5 417t61.5 449q0 234 -61 447.5t-187 418.5z" />
    <glyph glyph-name="asterisk" unicode="*" 
d="M152 991l190 111l-190 108l84 148l190 -109v221h172v-221l190 109l84 -148l-190 -108l190 -111l-84 -145l-190 108v-221h-172v221l-190 -108z" />
    <glyph glyph-name="plus" unicode="+" horiz-adv-x="1706" 
d="M752 1221h202v-510h498v-199h-498v-512h-202v512h-498v199h498v510z" />
    <glyph glyph-name="comma" unicode="," horiz-adv-x="406" 
d="M195 -193v193h-115v256h246v-186q0 -84 -31.5 -146.5t-99.5 -116.5z" />
    <glyph glyph-name="hyphen" unicode="-" horiz-adv-x="793" 
d="M51 682h688v-256h-688v256z" />
    <glyph glyph-name="period" unicode="." horiz-adv-x="406" 
d="M80 256h246v-256h-246v256z" />
    <glyph glyph-name="slash" unicode="/" horiz-adv-x="858" 
d="M-8 -188l721 1677h155l-727 -1677h-149z" />
    <glyph glyph-name="zero" unicode="0" horiz-adv-x="1583" 
d="M793 -20q-376 0 -556 184t-180 569q0 386 180.5 571t555.5 185q374 0 553.5 -185t179.5 -571q0 -385 -179.5 -569t-553.5 -184zM791 223q209 0 309 124.5t100 385.5q0 262 -100.5 387t-308.5 125q-209 0 -308.5 -125t-99.5 -387q0 -261 99.5 -385.5t308.5 -124.5z" />
    <glyph glyph-name="one" unicode="1" horiz-adv-x="541" 
d="M109 1470h323v-1470h-323v1470z" />
    <glyph glyph-name="two" unicode="2" horiz-adv-x="1395" 
d="M57 442q0 231 117 330.5t389 99.5h199q135 0 188.5 39t53.5 131q0 97 -51.5 136t-190.5 39h-705v253h840q108 0 165.5 -11t102.5 -38q93 -54 139 -149t46 -234q0 -210 -113 -319t-330 -109h-278q-131 0 -185.5 -48t-54.5 -163v-147h954v-252h-1286v442z" />
    <glyph glyph-name="three" unicode="3" horiz-adv-x="1294" 
d="M27 252h606q124 0 181.5 43.5t57.5 136.5q0 92 -58.5 136t-180.5 44h-490v252h482q124 0 181.5 43t57.5 133q0 92 -58 135.5t-181 43.5h-598v251h706q249 0 367.5 -95t118.5 -296q0 -102 -48.5 -185.5t-150.5 -156.5q104 -55 152.5 -138.5t48.5 -207.5
q0 -187 -119.5 -289t-337.5 -102h-737v252z" />
    <glyph glyph-name="four" unicode="4" horiz-adv-x="1583" 
d="M1010 1157l-594 -637h594v637zM1010 268h-947v285l865 920h391v-953h201v-252h-201v-268h-309v268z" />
    <glyph glyph-name="five" unicode="5" horiz-adv-x="1403" 
d="M66 252h712q120 0 171.5 43t51.5 141q0 97 -52 141t-171 44h-712v849h1222v-251h-897v-347h527q212 0 329 -114t117 -322q0 -216 -130.5 -326t-385.5 -110h-782v252z" />
    <glyph glyph-name="six" unicode="6" horiz-adv-x="1489" 
d="M924 598h-506q1 -194 94 -281.5t299 -87.5q156 0 224.5 46t68.5 149q0 87 -45 130.5t-135 43.5zM942 850q261 0 385.5 -99.5t124.5 -308.5q0 -226 -166 -343t-487 -117q-380 0 -559 178t-179 559q0 387 190 569t595 182h524v-251h-532q-219 0 -318 -87.5t-102 -281.5h524
z" />
    <glyph glyph-name="seven" unicode="7" horiz-adv-x="1300" 
d="M942 1219h-942v251h1303v-251l-883 -1219h-393z" />
    <glyph glyph-name="eight" unicode="8" horiz-adv-x="1509" 
d="M266 737q-98 69 -147 157t-49 196q0 195 117.5 287.5t365.5 92.5h397q246 0 365 -92.5t119 -283.5q0 -110 -49.5 -199.5t-145.5 -157.5q110 -47 161.5 -130.5t51.5 -215.5q0 -187 -118 -289t-337 -102h-487q-220 0 -338.5 102t-118.5 291q0 128 52.5 212.5t160.5 131.5z
M639 612q-122 0 -180 -43.5t-58 -136.5t57 -136.5t181 -43.5h227q124 0 182 43.5t58 136.5q0 92 -58.5 136t-181.5 44h-227zM643 1219q-124 0 -182 -43.5t-58 -135.5q0 -91 57.5 -133.5t182.5 -42.5h223q124 0 181 42.5t57 133.5q0 93 -57 136t-181 43h-223z" />
    <glyph glyph-name="nine" unicode="9" horiz-adv-x="1489" 
d="M563 870l506 1q-5 200 -97 283t-310 83q-148 0 -214.5 -46t-66.5 -147q0 -86 46 -130t136 -44zM545 621q-262 0 -386 99t-124 308q0 227 165.5 344t487.5 117q380 0 558.5 -179.5t178.5 -559.5q0 -388 -188.5 -569t-595.5 -181h-526v252h534q209 0 310.5 89t109.5 280
h-524z" />
    <glyph glyph-name="colon" unicode=":" horiz-adv-x="434" 
d="M94 256h244v-256h-244v256zM94 805h244v-256h-244v256z" />
    <glyph glyph-name="semicolon" unicode=";" horiz-adv-x="434" 
d="M94 805h244v-256h-244v256zM207 -193v193h-113v256h244v-186q0 -84 -31.5 -146.5t-99.5 -116.5z" />
    <glyph glyph-name="less" unicode="&#x3c;" horiz-adv-x="1706" 
d="M1442 1194v-219l-893 -365l893 -364v-219l-1178 485v199z" />
    <glyph glyph-name="equal" unicode="=" horiz-adv-x="1706" 
d="M254 496h1198v-199h-1198v199zM254 926h1198v-199h-1198v199z" />
    <glyph glyph-name="greater" unicode="&#x3e;" horiz-adv-x="1706" 
d="M264 1194l1178 -483v-199l-1178 -485v219l895 364l-895 365v219z" />
    <glyph glyph-name="question" unicode="?" horiz-adv-x="1419" 
d="M84 260h334v-260h-334v260zM418 399v-37h-336v78q0 225 121 327.5t389 102.5h178q136 0 189 39t53 131q0 98 -52 137.5t-190 39.5h-719v253h787q156 0 223.5 -11t114.5 -38q92 -52 138 -148.5t46 -236.5q0 -208 -114.5 -318t-330.5 -110h-258q-133 0 -186 -47t-53 -162z
" />
    <glyph glyph-name="at" unicode="@" horiz-adv-x="2048" 
d="M1167 272q-55 -84 -127 -123.5t-170 -39.5q-158 0 -240.5 86t-82.5 254q0 239 139.5 401t343.5 162q80 0 139 -33t97 -98l53 98h178l-147 -598q-3 -11 -4.5 -22t-2.5 -19q0 -35 24 -52.5t71 -17.5q39 0 81.5 20t79.5 56q86 80 130.5 187t44.5 235q0 240 -185.5 394.5
t-478.5 154.5q-141 0 -262.5 -34t-220.5 -101q-170 -114 -261.5 -285t-91.5 -375q0 -307 207 -490.5t553 -183.5q162 0 316.5 49t287.5 142l82 -117q-153 -115 -324.5 -173t-357.5 -58q-192 0 -353 48.5t-286 143.5q-155 121 -232 279t-77 358q0 167 52.5 318.5t154.5 275.5
q148 181 356 274t463 93q169 0 317.5 -45.5t258.5 -128.5q135 -105 201.5 -239.5t66.5 -303.5q0 -165 -65.5 -304.5t-188.5 -238.5q-70 -56 -152.5 -85.5t-171.5 -29.5q-106 0 -159.5 42t-55.5 124zM1217 700q-13 81 -57.5 123.5t-117.5 42.5q-114 0 -198 -124t-84 -298
q0 -92 40.5 -140t117.5 -48q83 0 151.5 63t93.5 164z" />
    <glyph glyph-name="A" unicode="A" horiz-adv-x="1479" 
d="M725 1178l-215 -566h438zM573 1470h328l627 -1470h-344l-135 350h-639l-131 -350h-328z" />
    <glyph glyph-name="B" unicode="B" horiz-adv-x="1546" 
d="M461 1206v-340h452q105 0 154 41.5t49 128.5q0 88 -49 129t-154 41h-452zM918 260q106 0 154 41.5t48 130.5q0 90 -48.5 132t-153.5 42h-457v-346h457zM961 0h-809v1470h755q143 0 232.5 -16t144.5 -51q81 -51 123.5 -132t42.5 -184q0 -123 -53 -208.5t-166 -143.5
q114 -48 168.5 -129.5t54.5 -204.5q0 -206 -120 -303.5t-373 -97.5z" />
    <glyph glyph-name="C" unicode="C" horiz-adv-x="1341" 
d="M758 1219q-192 0 -276.5 -122t-84.5 -401q0 -242 81 -341t280 -99h508v-256h-523q-173 0 -272 29.5t-186 99.5q-113 90 -169.5 234.5t-56.5 345.5q0 390 169 575.5t524 185.5h514v-251h-508z" />
    <glyph glyph-name="D" unicode="D" horiz-adv-x="1579" 
d="M819 1214h-358v-958h358q205 0 283 103t78 376q0 272 -78 375.5t-283 103.5zM152 1470h673q355 0 524 -185.5t169 -575.5q0 -201 -56.5 -345.5t-169.5 -234.5q-87 -70 -186 -99.5t-272 -29.5h-682v1470z" />
    <glyph glyph-name="E" unicode="E" horiz-adv-x="1384" 
d="M758 1214q-168 0 -253.5 -84t-94.5 -257l856 -1v-256h-858q1 -192 81.5 -276t268.5 -84h508v-256h-523q-173 0 -272 29.5t-186 99.5q-113 90 -169.5 234.5t-56.5 345.5q0 390 169 575.5t524 185.5h514v-256h-508z" />
    <glyph glyph-name="F" unicode="F" horiz-adv-x="1389" 
d="M141 676q0 281 34 412.5t116 214.5q84 85 224 126t349 41h471v-256h-497q-201 0 -292.5 -84.5t-94.5 -272.5l884 -1v-254h-884v-602h-310v676z" />
    <glyph glyph-name="G" unicode="G" horiz-adv-x="1520" 
d="M686 612v260h731v-872h-665q-184 0 -282.5 30t-184.5 99q-113 90 -169.5 234.5t-56.5 345.5q0 389 169.5 575t523.5 186h665v-253h-665q-182 0 -265.5 -118t-83.5 -376q0 -241 83 -349t266 -108h348v346h-414z" />
    <glyph glyph-name="H" unicode="H" horiz-adv-x="1489" 
d="M461 1470v-596h567v596h309v-1470h-309v614h-567v-614h-309v1470h309z" />
    <glyph glyph-name="I" unicode="I" horiz-adv-x="631" 
d="M477 0h-323v1470h323v-1470z" />
    <glyph glyph-name="J" unicode="J" horiz-adv-x="1143" 
d="M-8 244h364q196 0 266 82t70 338v806h322v-874q0 -156 -32 -262.5t-99 -179.5q-77 -85 -179 -119.5t-307 -34.5h-405v244z" />
    <glyph glyph-name="K" unicode="K" horiz-adv-x="1374" 
d="M152 1470h309v-706l579 706h371l-590 -718l596 -752h-395l-561 731v-731h-309v1470z" />
    <glyph glyph-name="L" unicode="L" horiz-adv-x="1139" 
d="M735 0q-206 0 -306 34.5t-179 119.5q-73 76 -103 172t-30 270v874h309v-864q0 -129 11.5 -181.5t39.5 -84.5q44 -52 108 -74t177 -22h364v-244h-391z" />
    <glyph glyph-name="M" unicode="M" horiz-adv-x="1960" 
d="M152 1470h454l375 -1128l375 1128h452v-1470h-303l25 1145l-377 -1145h-328l-389 1157l31 -1157h-315v1470z" />
    <glyph glyph-name="N" unicode="N" horiz-adv-x="1593" 
d="M152 1470h391l602 -1056l-15 1056h316v-1470h-359l-632 1112l14 -1112h-317v1470z" />
    <glyph glyph-name="O" unicode="O" horiz-adv-x="1583" 
d="M57 750q0 379 181.5 564t552.5 185q374 0 553.5 -187t179.5 -577t-179.5 -578t-553.5 -188q-378 0 -556 189t-178 592zM791 1247q-199 0 -297.5 -124t-98.5 -375q0 -272 95.5 -398.5t300.5 -126.5q202 0 299.5 125.5t97.5 386.5q0 262 -97.5 387t-299.5 125z" />
    <glyph glyph-name="P" unicode="P" horiz-adv-x="1520" 
d="M152 1470h671q170 0 271 -17.5t161 -55.5q100 -64 151.5 -167.5t51.5 -238.5q0 -132 -42 -226.5t-128 -156.5q-72 -51 -165.5 -72.5t-286.5 -21.5h-375v-514h-309v1470zM819 1208h-358v-434h377q140 0 208 53.5t68 163.5q0 118 -66.5 167.5t-228.5 49.5z" />
    <glyph glyph-name="Q" unicode="Q" horiz-adv-x="1583" 
d="M1200 51q-85 -42 -185 -62t-224 -20q-375 0 -554.5 188t-179.5 578t179.5 577t554.5 187q374 0 553.5 -187t179.5 -577q0 -163 -32 -292t-95 -222l223 -221h-371zM791 223q202 0 299.5 125.5t97.5 386.5q0 262 -97.5 387t-299.5 125t-299 -125t-97 -387q0 -261 97 -386.5
t299 -125.5z" />
    <glyph glyph-name="R" unicode="R" horiz-adv-x="1536" 
d="M840 1208h-379v-370h379q154 0 214 42t60 144q0 101 -58.5 142.5t-215.5 41.5zM152 1470h761q266 0 390 -107t124 -335q0 -169 -76.5 -276t-220.5 -138l367 -614h-348l-324 578h-364v-578h-309v1470z" />
    <glyph glyph-name="S" unicode="S" horiz-adv-x="1546" 
d="M1395 1208h-764q-123 0 -180.5 -46t-57.5 -146q0 -80 49 -120t146 -40h409q254 0 361.5 -96t107.5 -320q0 -227 -124 -333.5t-390 -106.5h-823v262h774q132 0 186 38.5t54 127.5q0 92 -49.5 131t-169.5 39h-365q-254 0 -371.5 101.5t-117.5 320.5q0 234 123.5 342
t392.5 108h809v-262z" />
    <glyph glyph-name="T" unicode="T" horiz-adv-x="1268" 
d="M473 1212h-475v256h1272v-256h-477v-1212h-320v1212z" />
    <glyph glyph-name="U" unicode="U" horiz-adv-x="1573" 
d="M455 1470v-880q0 -206 74.5 -287.5t256.5 -81.5t256 81t74 288v880h309v-888q0 -156 -20.5 -249t-65.5 -147q-88 -104 -221.5 -153t-331.5 -49t-332.5 49t-222.5 153q-44 53 -64 143t-20 253v888h308z" />
    <glyph glyph-name="V" unicode="V" horiz-adv-x="1436" 
d="M575 0l-641 1470h351l442 -1095l453 1095h329l-614 -1470h-320z" />
    <glyph glyph-name="W" unicode="W" horiz-adv-x="2265" 
d="M-14 1470h331l340 -1130l287 1130h365l329 -1130l318 1130h317l-454 -1470h-379l-314 1098l-274 -1098h-377z" />
    <glyph glyph-name="X" unicode="X" horiz-adv-x="1323" 
d="M483 735l-497 735h362l303 -464l301 464h357l-473 -714l507 -756h-370l-309 512l-328 -512h-367z" />
    <glyph glyph-name="Y" unicode="Y" horiz-adv-x="1270" 
d="M-84 1470h348l363 -561l368 561h359l-568 -821v-649h-309v649z" />
    <glyph glyph-name="Z" unicode="Z" horiz-adv-x="1503" 
d="M1358 1208l-828 -948h828v-260h-1241v260l839 948h-839v262h1241v-262z" />
    <glyph glyph-name="bracketleft" unicode="[" horiz-adv-x="711" 
d="M158 1470h501v-229h-253v-1274h253v-229h-501v1732z" />
    <glyph glyph-name="backslash" unicode="\" horiz-adv-x="858" 
d="M-10 1489h155l723 -1677h-151z" />
    <glyph glyph-name="bracketright" unicode="]" horiz-adv-x="711" 
d="M553 1470v-1732h-502v229h256v1274h-256v229h502z" />
    <glyph glyph-name="asciicircum" unicode="^" horiz-adv-x="2048" 
d="M897 1460h252l481 -561h-235l-371 371l-373 -371h-235z" />
    <glyph glyph-name="underscore" unicode="_" 
d="M0 -279h1024v-204h-1024v204z" />
    <glyph glyph-name="grave" unicode="`" 
d="M530 1208l-350 285h295l199 -285h-144z" />
    <glyph glyph-name="a" unicode="a" horiz-adv-x="1300" 
d="M524 217h357v223h-336q-100 0 -138 -27t-38 -94q0 -57 30.5 -79.5t124.5 -22.5zM145 1079h584q221 0 333 -101.5t112 -301.5v-676h-766q-161 0 -247.5 81t-86.5 230q0 184 99.5 264t330.5 80h375v27q0 96 -56.5 135t-201.5 39h-476v223z" />
    <glyph glyph-name="b" unicode="b" horiz-adv-x="1251" 
d="M410 1470v-391h245q162 0 260 -38.5t168 -127.5q59 -74 88 -163.5t29 -196.5q0 -260 -139 -406.5t-387 -146.5h-549v1470h285zM584 846h-174v-615h196q163 0 229 68.5t66 232.5q0 169 -72.5 241.5t-244.5 72.5z" />
    <glyph glyph-name="c" unicode="c" horiz-adv-x="1079" 
d="M711 231h303v-231h-387q-147 0 -241.5 30.5t-164.5 98.5q-75 74 -117.5 180.5t-42.5 225.5q0 125 42 233.5t118 181.5q71 68 166.5 98.5t239.5 30.5h387v-233h-303q-201 0 -277 -69.5t-76 -241.5q0 -99 31 -164t96 -105q32 -19 74.5 -27t151.5 -8z" />
    <glyph glyph-name="d" unicode="d" horiz-adv-x="1247" 
d="M838 231v615h-172q-173 0 -245.5 -72.5t-72.5 -241.5q0 -164 66.5 -232.5t228.5 -68.5h195zM1122 0h-547q-248 0 -387 146t-139 407q0 107 29 196.5t88 163.5q70 89 168.5 127.5t259.5 38.5h244v391h284v-1470z" />
    <glyph glyph-name="e" unicode="e" horiz-adv-x="1079" 
d="M604 0q-268 0 -405.5 136.5t-137.5 402.5t138 403t405 137h416v-225h-377q-155 0 -208.5 -44t-57.5 -159h643v-225h-643q4 -116 53.5 -158.5t210.5 -42.5h379v-225h-416z" />
    <glyph glyph-name="f" unicode="f" horiz-adv-x="803" 
d="M221 864h-205v215h205v111q0 165 61 222.5t234 57.5h270v-208h-135q-73 0 -104 -22.5t-31 -74.5v-86h270v-215h-270v-864h-295v864z" />
    <glyph glyph-name="g" unicode="g" horiz-adv-x="1249" 
d="M700 223h148v625h-148q-107 0 -150 -8t-75 -27q-66 -40 -96.5 -105.5t-30.5 -170.5q0 -173 77 -243.5t275 -70.5zM1135 39q0 -222 -99 -326t-309 -104h-559v219h510q82 0 126 39.5t44 114.5v18h-232q-180 0 -259 27t-146 92q-77 73 -118.5 182t-41.5 236
q0 125 41.5 233.5t118.5 181.5q69 68 162 97.5t243 29.5h519v-1040z" />
    <glyph glyph-name="h" unicode="h" horiz-adv-x="1233" 
d="M123 1470h283v-391h253q238 0 344.5 -93.5t106.5 -301.5v-684h-287v651q0 111 -40.5 151t-149.5 40h-227v-842h-283v1470z" />
    <glyph glyph-name="i" unicode="i" horiz-adv-x="545" 
d="M422 1202h-299v268h299v-268zM422 0h-299v1079h299v-1079z" />
    <glyph glyph-name="j" unicode="j" horiz-adv-x="545" 
d="M-18 -164q76 0 108.5 51t32.5 176v1016h299v-1026q0 -230 -92 -337t-289 -107h-184v227h125zM422 1202h-299v268h299v-268z" />
    <glyph glyph-name="k" unicode="k" horiz-adv-x="1233" 
d="M131 1470h285v-909l458 518h361l-500 -528l500 -551h-383l-436 524v-524h-285v1470z" />
    <glyph glyph-name="l" unicode="l" horiz-adv-x="537" 
d="M416 0h-297v1470h297v-1470z" />
    <glyph glyph-name="m" unicode="m" horiz-adv-x="1796" 
d="M123 1079h1094q238 0 343 -93t105 -302v-684h-287v647q0 119 -36 157t-148 38h-160v-842h-291v842h-333v-842h-287v1079z" />
    <glyph glyph-name="n" unicode="n" horiz-adv-x="1229" 
d="M123 1079h536q243 0 347 -91.5t104 -303.5v-684h-285v649q0 121 -37.5 157t-150.5 36h-229v-842h-285v1079z" />
    <glyph glyph-name="o" unicode="o" horiz-adv-x="1247" 
d="M350 539q0 -154 72 -240t201 -86q128 0 201 86t73 240t-72.5 239.5t-201.5 85.5q-128 0 -200.5 -86t-72.5 -239zM1196 539q0 -254 -154.5 -405.5t-416.5 -151.5t-418 152t-156 405q0 254 156 406.5t418 152.5q260 0 415.5 -152.5t155.5 -406.5z" />
    <glyph glyph-name="p" unicode="p" horiz-adv-x="1251" 
d="M410 846v-615h174q173 0 245 73t72 243q0 164 -66 231.5t-229 67.5h-196zM125 1079h549q248 0 387 -146t139 -407q0 -107 -29 -196.5t-88 -163.5q-70 -89 -168 -127.5t-260 -38.5h-245v-391h-285v1470z" />
    <glyph glyph-name="q" unicode="q" horiz-adv-x="1249" 
d="M666 231h174v615h-197q-163 0 -229 -67.5t-66 -231.5q0 -170 72.5 -243t245.5 -73zM840 -391v391h-244q-162 0 -261 39t-169 127q-59 74 -88 163.5t-29 196.5q0 262 139 407.5t387 145.5h549v-1470h-284z" />
    <glyph glyph-name="r" unicode="r" horiz-adv-x="963" 
d="M123 1079h479q168 0 235.5 -60.5t67.5 -211.5v-180h-272v139q0 63 -22.5 84.5t-102.5 21.5h-100v-872h-285v1079z" />
    <glyph glyph-name="s" unicode="s" horiz-adv-x="1217" 
d="M106 225h601q80 0 116.5 25t36.5 80t-37 80.5t-116 25.5h-246q-219 0 -296 67t-77 238q0 174 93 256t288 82h612v-225h-503q-123 0 -160 -21.5t-37 -76.5q0 -50 32.5 -73.5t102.5 -23.5h258q177 0 270 -82.5t93 -238.5q0 -150 -82.5 -244t-212.5 -94h-736v225z" />
    <glyph glyph-name="t" unicode="t" horiz-adv-x="848" 
d="M16 1079h201v391h285v-391h301v-215h-301v-436q0 -120 41 -166.5t143 -46.5h117v-215h-260q-158 0 -242 87.5t-84 250.5v526h-201v215z" />
    <glyph glyph-name="u" unicode="u" horiz-adv-x="1233" 
d="M1100 0h-537q-237 0 -342.5 94t-105.5 301v684h284v-661q0 -108 37.5 -144t149.5 -36h229v841h285v-1079z" />
    <glyph glyph-name="v" unicode="v" horiz-adv-x="1249" 
d="M2 1079h320l299 -766l317 766h307l-479 -1079h-307z" />
    <glyph glyph-name="w" unicode="w" horiz-adv-x="1788" 
d="M887 737l-225 -737h-316l-377 1079h299l238 -755l235 755h303l240 -755l238 755h293l-365 -1079h-328z" />
    <glyph glyph-name="x" unicode="x" horiz-adv-x="1133" 
d="M403 539l-399 540h330l231 -325l238 325h327l-399 -547l393 -532h-331l-228 313l-229 -313h-332z" />
    <glyph glyph-name="y" unicode="y" horiz-adv-x="1233" 
d="M586 238h229v841h285v-1050q0 -214 -100 -317t-306 -103h-559v219h510q82 0 126 39.5t44 114.5v18h-252q-242 0 -345 95.5t-103 318.5v665h282v-643q0 -122 36.5 -160t152.5 -38z" />
    <glyph glyph-name="z" unicode="z" horiz-adv-x="1196" 
d="M92 231l639 615h-639v233h1012v-233l-639 -615h639v-231h-1012v231z" />
    <glyph glyph-name="braceleft" unicode="{" 
d="M883 1477v-209q-9 0 -25 1t-22 1q-101 0 -136.5 -38.5t-35.5 -162.5v-240q0 -148 -45 -210t-162 -89q117 -27 162 -88t45 -209v-241q0 -123 35 -161t137 -38q6 0 22 1t25 1v-209q-14 0 -39 -1t-37 -1q-100 0 -167 12t-114 37q-57 34 -80.5 91.5t-23.5 199.5v252
q0 137 -51 194.5t-172 57.5q-6 0 -20 -1t-21 -1v209q7 0 21 -1t20 -1q120 0 171.5 58t51.5 196v250q0 143 23.5 201t80.5 92q47 25 114 37t167 12q12 0 37 -1t39 -1z" />
    <glyph glyph-name="bar" unicode="|" 
d="M410 1565h206v-2048h-206v2048z" />
    <glyph glyph-name="braceright" unicode="}" 
d="M143 1477h68q110 0 177 -12t112 -38q57 -32 80.5 -91.5t23.5 -198.5v-252q0 -137 51 -194.5t172 -57.5q6 0 20 1t21 1v-209h-37q-125 0 -176 -56t-51 -194v-252q0 -143 -23.5 -201t-80.5 -90q-47 -25 -114 -37t-167 -12q-12 0 -37 1t-39 1v209q9 0 25 -1t22 -1
q101 0 136.5 38.5t35.5 160.5v239q0 150 45 211.5t162 87.5q-117 27 -162 89t-45 210v242q0 122 -35.5 160.5t-136.5 38.5q-6 0 -22 -1t-25 -1v209z" />
    <glyph glyph-name="asciitilde" unicode="~" horiz-adv-x="1706" 
d="M1530 803v-221q-104 -71 -196.5 -104.5t-182.5 -33.5q-46 0 -92 8t-92 23q-24 8 -71 25q-219 75 -333 75q-85 0 -177.5 -37.5t-207.5 -119.5v221q107 72 204 107.5t183 35.5q117 0 291 -58q3 -1 4 -1l55 -19q155 -55 240 -55t175 37t200 117z" />
    <glyph glyph-name="Adieresis" unicode="&#xc4;" horiz-adv-x="1479" 
d="M725 1178l-215 -566h438zM573 1470h328l627 -1470h-344l-135 350h-639l-131 -350h-328zM790 1882h244v-262h-244v262zM436 1882h244v-262h-244v262z" />
    <glyph glyph-name="Aring" unicode="&#xc5;" horiz-adv-x="1479" 
d="M737 1829q-37 0 -62.5 -25.5t-25.5 -62.5q0 -35 25.5 -59.5t62.5 -24.5t61.5 24t24.5 60q0 38 -24.5 63t-61.5 25zM508 1745q0 95 67 161t162 66t161.5 -66.5t66.5 -160.5q0 -97 -66.5 -164.5t-161.5 -67.5t-162 67.5t-67 164.5zM725 1178l-215 -566h438zM573 1470h328
l627 -1470h-344l-135 350h-639l-131 -350h-328z" />
    <glyph glyph-name="Ccedilla" unicode="&#xc7;" horiz-adv-x="1341" 
d="M758 1219q-192 0 -276.5 -122t-84.5 -401q0 -242 81 -341t280 -99h508v-256h-523q-173 0 -272 29.5t-186 99.5q-113 90 -169.5 234.5t-56.5 345.5q0 390 169 575.5t524 185.5h514v-251h-508zM486 -281q80 -20 146 -30.5t112 -10.5q41 0 60.5 16t19.5 50q0 31 -26.5 44
t-88.5 13q-20 0 -31 -0.5t-20 -1.5v211h110v-94h15q107 0 164 -45t57 -129q0 -91 -62.5 -141t-177.5 -50q-57 0 -127.5 11t-150.5 32v125z" />
    <glyph glyph-name="Eacute" unicode="&#xc9;" horiz-adv-x="1384" 
d="M758 1214q-168 0 -253.5 -84t-94.5 -257l856 -1v-256h-858q1 -192 81.5 -276t268.5 -84h508v-256h-523q-173 0 -272 29.5t-186 99.5q-113 90 -169.5 234.5t-56.5 345.5q0 390 169 575.5t524 185.5h514v-256h-508zM821 1894h295l-350 -285h-144z" />
    <glyph glyph-name="Ntilde" unicode="&#xd1;" horiz-adv-x="1593" 
d="M152 1470h391l602 -1056l-15 1056h316v-1470h-359l-632 1112l14 -1112h-317v1470zM475 1622q24 116 75 173.5t130 57.5q19 0 36 -2t34 -6l129 -33q14 -3 26.5 -4.5t24.5 -1.5q34 0 56.5 19.5t31.5 55.5l101 1q-20 -114 -75.5 -176t-137.5 -62q-16 0 -31 2t-29 6l-137 35
q-9 3 -19.5 4.5t-21.5 1.5q-37 0 -60 -18t-32 -53h-101z" />
    <glyph glyph-name="Odieresis" unicode="&#xd6;" horiz-adv-x="1583" 
d="M57 750q0 379 181.5 564t552.5 185q374 0 553.5 -187t179.5 -577t-179.5 -578t-553.5 -188q-378 0 -556 189t-178 592zM791 1247q-199 0 -297.5 -124t-98.5 -375q0 -272 95.5 -398.5t300.5 -126.5q202 0 299.5 125.5t97.5 386.5q0 262 -97.5 387t-299.5 125zM843 1882
h244v-262h-244v262zM489 1882h244v-262h-244v262z" />
    <glyph glyph-name="Udieresis" unicode="&#xdc;" horiz-adv-x="1573" 
d="M455 1470v-880q0 -206 74.5 -287.5t256.5 -81.5t256 81t74 288v880h309v-888q0 -156 -20.5 -249t-65.5 -147q-88 -104 -221.5 -153t-331.5 -49t-332.5 49t-222.5 153q-44 53 -64 143t-20 253v888h308zM841 1882h244v-262h-244v262zM487 1882h244v-262h-244v262z" />
    <glyph glyph-name="aacute" unicode="&#xe1;" horiz-adv-x="1300" 
d="M524 217h357v223h-336q-100 0 -138 -27t-38 -94q0 -57 30.5 -79.5t124.5 -22.5zM145 1079h584q221 0 333 -101.5t112 -301.5v-676h-766q-161 0 -247.5 81t-86.5 230q0 184 99.5 264t330.5 80h375v27q0 96 -56.5 135t-201.5 39h-476v223zM666 1493h295l-350 -285h-144z
" />
    <glyph glyph-name="agrave" unicode="&#xe0;" horiz-adv-x="1300" 
d="M524 217h357v223h-336q-100 0 -138 -27t-38 -94q0 -57 30.5 -79.5t124.5 -22.5zM145 1079h584q221 0 333 -101.5t112 -301.5v-676h-766q-161 0 -247.5 81t-86.5 230q0 184 99.5 264t330.5 80h375v27q0 96 -56.5 135t-201.5 39h-476v223zM647 1208l-350 285h295l199 -285
h-144z" />
    <glyph glyph-name="acircumflex" unicode="&#xe2;" horiz-adv-x="1300" 
d="M524 217h357v223h-336q-100 0 -138 -27t-38 -94q0 -57 30.5 -79.5t124.5 -22.5zM145 1079h584q221 0 333 -101.5t112 -301.5v-676h-766q-161 0 -247.5 81t-86.5 230q0 184 99.5 264t330.5 80h375v27q0 96 -56.5 135t-201.5 39h-476v223zM510 1493h238l198 -285h-143
l-174 150l-174 -150h-143z" />
    <glyph glyph-name="adieresis" unicode="&#xe4;" horiz-adv-x="1300" 
d="M524 217h357v223h-336q-100 0 -138 -27t-38 -94q0 -57 30.5 -79.5t124.5 -22.5zM145 1079h584q221 0 333 -101.5t112 -301.5v-676h-766q-161 0 -247.5 81t-86.5 230q0 184 99.5 264t330.5 80h375v27q0 96 -56.5 135t-201.5 39h-476v223zM684 1481h244v-262h-244v262z
M330 1481h244v-262h-244v262z" />
    <glyph glyph-name="atilde" unicode="&#xe3;" horiz-adv-x="1300" 
d="M524 217h357v223h-336q-100 0 -138 -27t-38 -94q0 -57 30.5 -79.5t124.5 -22.5zM145 1079h584q221 0 333 -101.5t112 -301.5v-676h-766q-161 0 -247.5 81t-86.5 230q0 184 99.5 264t330.5 80h375v27q0 96 -56.5 135t-201.5 39h-476v223zM307 1221q24 116 75 173.5
t130 57.5q19 0 36 -2t34 -6l129 -33q14 -3 26.5 -4.5t24.5 -1.5q34 0 56.5 19.5t31.5 55.5l101 1q-20 -114 -75.5 -176t-137.5 -62q-16 0 -31 2t-29 6l-137 35q-9 3 -19.5 4.5t-21.5 1.5q-37 0 -60 -18t-32 -53h-101z" />
    <glyph glyph-name="aring" unicode="&#xe5;" horiz-adv-x="1298" 
d="M643 1460q-37 0 -62.5 -25.5t-25.5 -62.5q0 -35 26 -60.5t62 -25.5t61 25t25 61q0 38 -24.5 63t-61.5 25zM414 1374q0 95 66 161.5t161 66.5t162 -67t67 -161q0 -96 -66.5 -162.5t-162.5 -66.5q-95 0 -161 66.5t-66 162.5zM524 217h357v223h-336q-100 0 -138 -27t-38 -94
q0 -57 30.5 -79.5t124.5 -22.5zM145 1079h584q221 0 333 -101.5t112 -301.5v-676h-766q-161 0 -247.5 81t-86.5 230q0 184 99.5 264t330.5 80h375v27q0 96 -56.5 135t-201.5 39h-476v223z" />
    <glyph glyph-name="ccedilla" unicode="&#xe7;" horiz-adv-x="1079" 
d="M711 231h303v-231h-387q-147 0 -241.5 30.5t-164.5 98.5q-75 74 -117.5 180.5t-42.5 225.5q0 125 42 233.5t118 181.5q71 68 166.5 98.5t239.5 30.5h387v-233h-303q-201 0 -277 -69.5t-76 -241.5q0 -99 31 -164t96 -105q32 -19 74.5 -27t151.5 -8zM314 -281
q80 -20 146 -30.5t112 -10.5q41 0 60.5 16t19.5 50q0 31 -26.5 44t-88.5 13q-20 0 -31 -0.5t-20 -1.5v211h110v-94h15q107 0 164 -45t57 -129q0 -91 -62.5 -141t-177.5 -50q-57 0 -127.5 11t-150.5 32v125z" />
    <glyph glyph-name="eacute" unicode="&#xe9;" horiz-adv-x="1079" 
d="M604 0q-268 0 -405.5 136.5t-137.5 402.5t138 403t405 137h416v-225h-377q-155 0 -208.5 -44t-57.5 -159h643v-225h-643q4 -116 53.5 -158.5t210.5 -42.5h379v-225h-416zM668 1493h295l-350 -285h-144z" />
    <glyph glyph-name="egrave" unicode="&#xe8;" horiz-adv-x="1079" 
d="M604 0q-268 0 -405.5 136.5t-137.5 402.5t138 403t405 137h416v-225h-377q-155 0 -208.5 -44t-57.5 -159h643v-225h-643q4 -116 53.5 -158.5t210.5 -42.5h379v-225h-416zM649 1208l-350 285h295l199 -285h-144z" />
    <glyph glyph-name="ecircumflex" unicode="&#xea;" horiz-adv-x="1079" 
d="M604 0q-268 0 -405.5 136.5t-137.5 402.5t138 403t405 137h416v-225h-377q-155 0 -208.5 -44t-57.5 -159h643v-225h-643q4 -116 53.5 -158.5t210.5 -42.5h379v-225h-416zM512 1493h238l198 -285h-143l-174 150l-174 -150h-143z" />
    <glyph glyph-name="edieresis" unicode="&#xeb;" horiz-adv-x="1079" 
d="M604 0q-268 0 -405.5 136.5t-137.5 402.5t138 403t405 137h416v-225h-377q-155 0 -208.5 -44t-57.5 -159h643v-225h-643q4 -116 53.5 -158.5t210.5 -42.5h379v-225h-416zM686 1481h244v-262h-244v262zM332 1481h244v-262h-244v262z" />
    <glyph glyph-name="iacute" unicode="&#xed;" horiz-adv-x="545" 
d="M422 0h-299v1079h299v-1079zM309 1493h295l-350 -285h-144z" />
    <glyph glyph-name="igrave" unicode="&#xec;" horiz-adv-x="545" 
d="M422 0h-299v1079h299v-1079zM290 1208l-350 285h295l199 -285h-144z" />
    <glyph glyph-name="icircumflex" unicode="&#xee;" horiz-adv-x="545" 
d="M422 0h-299v1079h299v-1079zM153 1493h238l198 -285h-143l-174 150l-174 -150h-143z" />
    <glyph glyph-name="idieresis" unicode="&#xef;" horiz-adv-x="545" 
d="M422 0h-299v1079h299v-1079zM327 1481h244v-262h-244v262zM-27 1481h244v-262h-244v262z" />
    <glyph glyph-name="ntilde" unicode="&#xf1;" horiz-adv-x="1229" 
d="M123 1079h536q243 0 347 -91.5t104 -303.5v-684h-285v649q0 121 -37.5 157t-150.5 36h-229v-842h-285v1079zM260 1221q24 116 75 173.5t130 57.5q19 0 36 -2t34 -6l129 -33q14 -3 26.5 -4.5t24.5 -1.5q34 0 56.5 19.5t31.5 55.5l101 1q-20 -114 -75.5 -176t-137.5 -62
q-16 0 -31 2t-29 6l-137 35q-9 3 -19.5 4.5t-21.5 1.5q-37 0 -60 -18t-32 -53h-101z" />
    <glyph glyph-name="oacute" unicode="&#xf3;" horiz-adv-x="1247" 
d="M350 539q0 -154 72 -240t201 -86q128 0 201 86t73 240t-72.5 239.5t-201.5 85.5q-128 0 -200.5 -86t-72.5 -239zM1196 539q0 -254 -154.5 -405.5t-416.5 -151.5t-418 152t-156 405q0 254 156 406.5t418 152.5q260 0 415.5 -152.5t155.5 -406.5zM662 1493h295l-350 -285
h-144z" />
    <glyph glyph-name="ograve" unicode="&#xf2;" horiz-adv-x="1247" 
d="M350 539q0 -154 72 -240t201 -86q128 0 201 86t73 240t-72.5 239.5t-201.5 85.5q-128 0 -200.5 -86t-72.5 -239zM1196 539q0 -254 -154.5 -405.5t-416.5 -151.5t-418 152t-156 405q0 254 156 406.5t418 152.5q260 0 415.5 -152.5t155.5 -406.5zM643 1208l-350 285h295
l199 -285h-144z" />
    <glyph glyph-name="ocircumflex" unicode="&#xf4;" horiz-adv-x="1247" 
d="M350 539q0 -154 72 -240t201 -86q128 0 201 86t73 240t-72.5 239.5t-201.5 85.5q-128 0 -200.5 -86t-72.5 -239zM1196 539q0 -254 -154.5 -405.5t-416.5 -151.5t-418 152t-156 405q0 254 156 406.5t418 152.5q260 0 415.5 -152.5t155.5 -406.5zM506 1493h238l198 -285
h-143l-174 150l-174 -150h-143z" />
    <glyph glyph-name="odieresis" unicode="&#xf6;" horiz-adv-x="1247" 
d="M350 539q0 -154 72 -240t201 -86q128 0 201 86t73 240t-72.5 239.5t-201.5 85.5q-128 0 -200.5 -86t-72.5 -239zM1196 539q0 -254 -154.5 -405.5t-416.5 -151.5t-418 152t-156 405q0 254 156 406.5t418 152.5q260 0 415.5 -152.5t155.5 -406.5zM680 1481h244v-262h-244
v262zM326 1481h244v-262h-244v262z" />
    <glyph glyph-name="otilde" unicode="&#xf5;" horiz-adv-x="1247" 
d="M350 539q0 -154 72 -240t201 -86q128 0 201 86t73 240t-72.5 239.5t-201.5 85.5q-128 0 -200.5 -86t-72.5 -239zM1196 539q0 -254 -154.5 -405.5t-416.5 -151.5t-418 152t-156 405q0 254 156 406.5t418 152.5q260 0 415.5 -152.5t155.5 -406.5zM303 1221q24 116 75 173.5
t130 57.5q19 0 36 -2t34 -6l129 -33q14 -3 26.5 -4.5t24.5 -1.5q34 0 56.5 19.5t31.5 55.5l101 1q-20 -114 -75.5 -176t-137.5 -62q-16 0 -31 2t-29 6l-137 35q-9 3 -19.5 4.5t-21.5 1.5q-37 0 -60 -18t-32 -53h-101z" />
    <glyph glyph-name="uacute" unicode="&#xfa;" horiz-adv-x="1233" 
d="M1100 0h-537q-237 0 -342.5 94t-105.5 301v684h284v-661q0 -108 37.5 -144t149.5 -36h229v841h285v-1079zM651 1493h295l-350 -285h-144z" />
    <glyph glyph-name="ugrave" unicode="&#xf9;" horiz-adv-x="1233" 
d="M1100 0h-537q-237 0 -342.5 94t-105.5 301v684h284v-661q0 -108 37.5 -144t149.5 -36h229v841h285v-1079zM632 1208l-350 285h295l199 -285h-144z" />
    <glyph glyph-name="ucircumflex" unicode="&#xfb;" horiz-adv-x="1233" 
d="M1100 0h-537q-237 0 -342.5 94t-105.5 301v684h284v-661q0 -108 37.5 -144t149.5 -36h229v841h285v-1079zM495 1493h238l198 -285h-143l-174 150l-174 -150h-143z" />
    <glyph glyph-name="udieresis" unicode="&#xfc;" horiz-adv-x="1233" 
d="M1100 0h-537q-237 0 -342.5 94t-105.5 301v684h284v-661q0 -108 37.5 -144t149.5 -36h229v841h285v-1079zM669 1481h244v-262h-244v262zM315 1481h244v-262h-244v262z" />
    <glyph glyph-name="dagger" unicode="&#x2020;" 
d="M358 807h-297v252h297v411h308v-411h297v-252h-297v-1002h-308v1002z" />
    <glyph glyph-name="degree" unicode="&#xb0;" horiz-adv-x="674" 
d="M338 1335q-73 0 -124.5 -51t-51.5 -123q0 -74 51 -125t125 -51q72 0 123 52t51 124t-51 123t-123 51zM338 1464q126 0 214.5 -89.5t88.5 -215.5q0 -125 -89 -214t-216 -89q-126 0 -213.5 88t-87.5 215t88.5 216t214.5 89z" />
    <glyph glyph-name="cent" unicode="&#xa2;" horiz-adv-x="840" 
d="M471 1006q-104 -16 -152.5 -78.5t-48.5 -179.5q0 -118 49.5 -180t151.5 -74v512zM588 305v-131h-117v131h-14q-198 0 -313 119t-115 324q0 208 118 327t324 119v127h117v-127h217v-188h-217v-512h217v-189h-217z" />
    <glyph glyph-name="sterling" unicode="&#xa3;" horiz-adv-x="1395" 
d="M322 252v383h-265v213h265v100q0 179 25.5 269t86.5 151q54 55 127 78.5t234 23.5h51h375v-253h-355q-149 0 -194 -41.5t-45 -200.5v-127h362v-213h-362v-383h716v-252h-1286v252h265z" />
    <glyph glyph-name="section" unicode="&#xa7;" 
d="M465 524h151q53 28 78 61t25 74q0 50 -36 72.5t-116 22.5h-151q-49 -19 -77 -55t-28 -81q0 -48 37 -71t117 -23zM100 49h389q128 0 165.5 25.5t37.5 89.5q0 60 -36.5 89.5t-112.5 29.5h-150q-171 0 -268.5 80t-97.5 219q0 86 35.5 147t103.5 92q-68 40 -100.5 105.5
t-32.5 160.5q0 186 103 284.5t298 98.5h475v-241h-366q-126 0 -168.5 -27.5t-42.5 -95.5q0 -55 38.5 -85t110.5 -30h150q171 0 264.5 -77t93.5 -216q0 -80 -30.5 -139.5t-92.5 -97.5q61 -34 93 -105.5t32 -171.5q0 -182 -104 -280.5t-297 -98.5h-490v244z" />
    <glyph glyph-name="bullet" unicode="&#x2022;" horiz-adv-x="1208" 
d="M307 762q0 123 87 209t210 86q122 0 208.5 -86.5t86.5 -208.5t-87.5 -209.5t-209.5 -87.5q-123 0 -209 87t-86 210z" />
    <glyph glyph-name="paragraph" unicode="&#xb6;" 
d="M983 1479v-111h-113v-1368h-151v1368h-158v-1368h-153v784q-167 6 -267 101t-100 245q0 158 107 253.5t284 95.5h551z" />
    <glyph glyph-name="germandbls" unicode="&#xdf;" horiz-adv-x="1413" 
d="M1087 944l-223 -133q-22 -13 -29 -19.5t-8 -13.5q0 -4 8 -9t33 -15l201 -84q126 -54 182 -130t56 -192q0 -162 -84.5 -255t-231.5 -93h-377v225h250q84 0 125 29.5t41 89.5q0 50 -26.5 83.5t-88.5 59.5l-182 80q-95 43 -128.5 83t-33.5 106q0 67 24.5 107t127.5 104
l129 82q6 3 16 9q62 37 62 99q0 60 -32.5 82.5t-166.5 22.5h-80q-74 0 -104.5 -22.5t-30.5 -74.5v-1165h-295v866h-205v213h205v111q0 165 61 222.5t234 57.5h295q193 0 288 -76.5t95 -232.5q0 -77 -26.5 -131t-80.5 -86z" />
    <glyph glyph-name="registered" unicode="&#xae;" horiz-adv-x="1706" 
d="M745 1034v-239h99q88 0 129 28t41 88q0 63 -44 93t-136 30h-89zM545 1161h323q176 0 264.5 -59.5t88.5 -177.5q0 -82 -48 -140t-133 -79l185 -369h-224l-157 338h-99v-338h-200v825zM854 1356q-127 0 -236 -44.5t-196 -131.5q-91 -91 -140 -206.5t-49 -238.5
q0 -124 46 -235.5t133 -198.5q89 -91 203 -139.5t237 -48.5q120 0 233.5 47t206.5 135q87 84 135 196t48 232q0 133 -44.5 245t-132.5 201q-90 93 -202.5 140t-241.5 47zM852 1479q154 0 290.5 -57.5t243.5 -166.5q103 -104 157 -238t54 -284q0 -152 -56 -287.5t-163 -238.5
q-107 -105 -243.5 -161t-282.5 -56q-149 0 -285 58t-243 167q-104 105 -158.5 238.5t-54.5 279.5q0 102 27 198.5t81 188.5q101 170 267 264.5t366 94.5z" />
    <glyph glyph-name="copyright" unicode="&#xa9;" horiz-adv-x="1706" 
d="M1212 897h-188q-8 70 -53 108.5t-119 38.5q-91 0 -143 -81.5t-52 -227.5q0 -147 52 -224t151 -77q73 0 117 42t53 119l193 1q-8 -139 -109 -223t-260 -84q-186 0 -293.5 118t-107.5 322q0 206 109.5 328.5t293.5 122.5q152 0 250.5 -78t105.5 -205zM854 1356
q-128 0 -239.5 -46t-198.5 -134q-89 -90 -136 -203.5t-47 -237.5q0 -125 47 -237t136 -201q88 -88 201 -135t237 -47t237.5 47t204.5 137q88 86 133.5 197t45.5 239q0 126 -46.5 238.5t-134.5 200.5q-89 89 -201 135.5t-239 46.5zM852 1479q152 0 287.5 -56t242.5 -163
q105 -105 160 -240.5t55 -286.5q0 -152 -54.5 -284t-160.5 -236q-111 -108 -248 -165.5t-282 -57.5q-147 0 -280.5 56.5t-241.5 164.5q-107 106 -163 240.5t-56 281.5q0 149 56 284.5t163 244.5q105 106 238 161.5t284 55.5z" />
    <glyph glyph-name="trademark" unicode="&#x2122;" horiz-adv-x="1706" 
d="M803 1462h196l127 -332l123 332h197v-547h-135v410l-154 -410h-61l-158 410v-410h-135v547zM207 1462h485v-112h-168v-435h-149v435h-168v112z" />
    <glyph glyph-name="acute" unicode="&#xb4;" 
d="M549 1493h295l-350 -285h-144z" />
    <glyph glyph-name="dieresis" unicode="&#xa8;" 
d="M567 1481h244v-262h-244v262zM213 1481h244v-262h-244v262z" />
    <glyph glyph-name="notequal" unicode="&#x2260;" horiz-adv-x="1706" 
d="M1198 1233l148 -119l-154 -192h260v-191h-389l-191 -239h580v-193h-707l-245 -309l-148 119l154 190h-252v193h377l190 239h-567v191h696z" />
    <glyph glyph-name="AE" unicode="&#xc6;" horiz-adv-x="2288" 
d="M-45 0l623 1470h335l131 -356q90 190 237.5 273t395.5 83h492v-256h-508q-168 0 -253.5 -84t-94.5 -257l856 -1v-256h-858q1 -192 82 -276t268 -84h508v-256h-500q-139 0 -238 18.5t-161 55.5q-62 38 -116 106.5t-103 169.5h-637l-131 -350h-328zM729 1178l-215 -566h465
l-209 566h-41z" />
    <glyph glyph-name="Oslash" unicode="&#xd8;" horiz-adv-x="1583" 
d="M1047 1200q-55 36 -117.5 53t-138.5 17q-213 0 -317.5 -129t-104.5 -391q0 -87 14 -166t43 -154zM1147 1073l-631 -778q42 -47 112.5 -71.5t162.5 -24.5q215 0 319 132t104 404q0 105 -16 187t-51 151zM47 -18l166 204q-77 90 -116.5 228t-39.5 321q0 394 178 579
t556 185q134 0 247 -24.5t191 -69.5l76 84h196l-151 -182q83 -79 128.5 -227.5t45.5 -344.5q0 -390 -179.5 -578t-553.5 -188q-147 0 -259.5 28t-203.5 87l-82 -102h-199z" />
    <glyph glyph-name="infinity" unicode="&#x221e;" horiz-adv-x="1706" 
d="M942 561q45 -75 106.5 -113t139.5 -38q94 0 152.5 55.5t58.5 144.5q0 86 -54 142.5t-135 56.5q-74 0 -136 -57t-132 -191zM766 659q-46 76 -107 113t-139 37q-93 0 -152 -56.5t-59 -144.5q0 -85 54 -141.5t135 -56.5q75 0 138 58t130 191zM858 457q-69 -133 -147 -195.5
t-174 -62.5q-139 0 -235.5 117.5t-96.5 293.5q0 184 85.5 297t223.5 113q93 0 169.5 -58.5t164.5 -199.5q68 132 148 196t175 64q139 0 235.5 -118t96.5 -294q0 -183 -86 -296t-223 -113q-93 0 -168.5 56.5t-167.5 199.5z" />
    <glyph glyph-name="plusminus" unicode="&#xb1;" horiz-adv-x="1706" 
d="M254 197h1198v-199h-1198v199zM752 1223h202v-326h498v-199h-498v-325h-202v325h-498v199h498v326z" />
    <glyph glyph-name="lessequal" unicode="&#x2264;" horiz-adv-x="1706" 
d="M258 195h1192v-197h-1192v197zM1448 1241v-209l-834 -264l834 -262v-209l-1190 385v174z" />
    <glyph glyph-name="greaterequal" unicode="&#x2265;" horiz-adv-x="1706" 
d="M258 195h1192v-197h-1192v197zM260 1241l1188 -385v-174l-1188 -385v209l832 262l-832 264v209z" />
    <glyph glyph-name="yen" unicode="&#xa5;" horiz-adv-x="1270" 
d="M14 596v119h422l-90 133h-332v119h248l-346 503h348l363 -561l368 561h359l-344 -503h252v-119h-332l-96 -133h428v-119h-476v-596h-309v596h-463z" />
    <glyph glyph-name="mu" unicode="&#xb5;" horiz-adv-x="1249" 
d="M205 1092h289l-76 -435q-15 -80 -23 -151.5t-8 -116.5q0 -93 42 -138.5t128 -45.5q100 0 155.5 82t92.5 291l90 514h289l-193 -1092h-268l18 117q-42 -78 -93.5 -114t-121.5 -36q-67 0 -119 29.5t-94 91.5l-90 -526h-286z" />
    <glyph glyph-name="partialdiff" unicode="&#x2202;" horiz-adv-x="1094" 
d="M762 662q19 99 29 188.5t10 155.5q0 100 -26 157.5t-70 57.5t-146 -73t-160 -73q-42 0 -71 30t-29 73q0 64 86.5 118t210.5 54q192 0 309 -161.5t117 -432.5q0 -339 -156.5 -560t-396.5 -221q-171 0 -282 114.5t-111 291.5q0 198 116 329.5t287 131.5q102 0 170 -43.5
t113 -136.5zM700 518q0 116 -38.5 178t-110.5 62q-101 0 -167.5 -134t-66.5 -341q0 -117 38.5 -177.5t111.5 -60.5q101 0 167 133.5t66 339.5z" />
    <glyph glyph-name="summation" unicode="&#x2211;" horiz-adv-x="1470" 
d="M66 1473h1308v-265h-878l620 -645l-622 -690h933v-266h-1386v172l698 772l-673 690v232z" />
    <glyph glyph-name="product" unicode="&#x220f;" horiz-adv-x="1612" 
d="M150 1473h1308v-1866h-344v1577h-620v-1577h-344v1866z" />
    <glyph glyph-name="pi" unicode="&#x3c0;" horiz-adv-x="1319" 
d="M1354 1092l-39 -224h-176l-154 -868h-287l152 868h-238l-151 -868h-287l152 868h-25q-55 0 -84 -31t-39 -100h-213q30 200 123 277.5t311 77.5h955z" />
    <glyph glyph-name="integral" unicode="&#x222b;" horiz-adv-x="1186" 
d="M342 -252q102 0 121 639q3 136 6 211q16 508 123 732t328 224q98 0 157.5 -49t59.5 -129q0 -60 -38 -96.5t-100 -36.5q-46 0 -77 24t-41 68q-5 20 -7 54q-3 46 -30 47q-99 0 -119 -633l-6 -178q-11 -296 -31 -444.5t-59 -250.5q-56 -148 -148.5 -225.5t-214.5 -77.5
q-96 0 -156.5 49t-60.5 127q0 62 39 99t105 37q50 0 85 -31.5t35 -71.5q0 -58 6 -73t23 -15z" />
    <glyph glyph-name="ordfeminine" unicode="&#xaa;" horiz-adv-x="975" 
d="M393 866h269v158h-252q-75 0 -104.5 -19.5t-29.5 -66.5q0 -40 23 -56t94 -16zM109 1470h438q166 0 250 -71t84 -211v-473h-576q-119 0 -184.5 56.5t-65.5 160.5q0 129 75 185.5t249 56.5h280v18q0 67 -42.5 95t-151.5 28h-356v155z" />
    <glyph glyph-name="ordmasculine" unicode="&#xba;" horiz-adv-x="936" 
d="M262 1092q0 -107 54.5 -167.5t150.5 -60.5q97 0 152 60t55 168q0 107 -54.5 167t-152.5 60q-97 0 -151 -60t-54 -167zM897 1092q0 -179 -116 -284.5t-312 -105.5t-313 106.5t-117 283.5q0 178 117 284.5t313 106.5q195 0 311.5 -106.5t116.5 -284.5z" />
    <glyph glyph-name="Omega" unicode="&#x3a9;" horiz-adv-x="1575" 
d="M1227 256h291v-256h-609v291q126 86 192 217.5t66 296.5q0 203 -101.5 319.5t-279.5 116.5q-177 0 -278.5 -116.5t-101.5 -319.5q0 -164 66 -296.5t192 -217.5v-291h-609v256h291q-126 121 -187 260t-61 303q0 313 188 501.5t500 188.5q313 0 501 -188.5t188 -501.5
q0 -164 -61 -303t-187 -260z" />
    <glyph glyph-name="ae" unicode="&#xe6;" horiz-adv-x="1858" 
d="M522 223h342v217h-319q-99 0 -137.5 -26.5t-38.5 -89.5q0 -56 30.5 -78.5t122.5 -22.5zM143 1079h559q110 0 183.5 -26.5t128.5 -85.5q60 58 142 85t202 27h442v-223h-393q-150 0 -206 -44t-60 -157h659v-215h-663q3 -124 58 -170.5t210 -46.5h395v-223h-479
q-122 0 -199.5 28.5t-122.5 90.5v-119h-591q-162 0 -249 81t-87 230q0 184 100.5 264t331.5 80h358v27q0 96 -55.5 135t-200.5 39h-463v223z" />
    <glyph glyph-name="oslash" unicode="&#xf8;" horiz-adv-x="1251" 
d="M786 836q-38 22 -78 33.5t-85 11.5q-133 0 -209 -91t-76 -251q0 -57 10 -104t31 -87zM879 727l-408 -483q35 -24 72.5 -35.5t79.5 -11.5q134 0 210 90t76 252q0 57 -7.5 103.5t-22.5 84.5zM207 135q-81 94 -118.5 190.5t-37.5 213.5q0 254 156 406.5t418 152.5
q85 0 163 -19.5t152 -58.5l64 78h182l-135 -162q73 -87 109 -186t36 -211q0 -256 -154.5 -406.5t-416.5 -150.5q-97 0 -172 18t-138 55l-63 -73h-180z" />
    <glyph glyph-name="questiondown" unicode="&#xbf;" horiz-adv-x="1419" 
d="M1001 1071v37h336v-78q0 -225 -121 -327.5t-389 -102.5h-178q-134 0 -187.5 -39.5t-53.5 -132.5q0 -97 51 -135.5t190 -38.5h719v-254h-786q-157 0 -224.5 11.5t-113.5 37.5q-92 54 -137.5 148.5t-45.5 234.5q0 209 114 319.5t329 110.5h258q133 0 186 47t53 162z
M1337 1210h-336v260h336v-260z" />
    <glyph glyph-name="exclamdown" unicode="&#xa1;" horiz-adv-x="639" 
d="M166 1470h309v-264h-309v264zM164 1092h309v-1092h-309v1092z" />
    <glyph glyph-name="logicalnot" unicode="&#xac;" horiz-adv-x="1706" 
d="M254 864h1198v-502h-199v306h-999v196z" />
    <glyph glyph-name="radical" unicode="&#x221a;" horiz-adv-x="1346" 
d="M1141 1694h207v-129h-103l-592 -1606h-100l-311 858l-140 -51l-30 113l331 116l236 -661z" />
    <glyph glyph-name="florin" unicode="&#x192;" horiz-adv-x="1583" 
d="M1276 1233h-137q-77 0 -100 -18t-35 -78l-52 -238h252v-237h-301l-117 -596q-2 -11 -6 -31q-46 -242 -96 -299q-43 -50 -120.5 -75.5t-184.5 -25.5h-164v238h88q79 0 116.5 34.5t57.5 129.5l127 625h-219v237h266l58 291q35 175 96 227.5t225 52.5h246v-237z" />
    <glyph glyph-name="approxequal" unicode="&#x2248;" horiz-adv-x="1706" 
d="M1530 596v-219q-106 -72 -198 -105.5t-181 -33.5q-95 0 -286.5 66.5t-301.5 66.5q-84 0 -174.5 -37t-210.5 -121v219q111 73 206.5 108t180.5 35q124 0 315.5 -65.5t274.5 -65.5q86 0 174 35.5t201 116.5zM1530 1008v-220q-106 -71 -196.5 -104t-180.5 -33
q-94 0 -286 65.5t-304 65.5q-82 0 -170 -35t-215 -122v219q107 71 204 107t183 36q125 0 316.5 -65.5t273.5 -65.5q84 0 171 35t204 117z" />
    <glyph glyph-name="Delta" unicode="&#x2206;" horiz-adv-x="1427" 
d="M713 1110l-326 -854h653zM563 1473h301l563 -1473h-1427z" />
    <glyph glyph-name="guillemotleft" unicode="&#xab;" horiz-adv-x="1290" 
d="M834 539l352 -355h-312l-333 355l350 356h305zM346 539l352 -355h-311l-334 355l350 356h306z" />
    <glyph glyph-name="guillemotright" unicode="&#xbb;" horiz-adv-x="1290" 
d="M416 541l-353 354h310l336 -354l-353 -357h-303zM903 541l-352 354h311l334 -354l-352 -357h-303z" />
    <glyph glyph-name="ellipsis" unicode="&#x2026;" horiz-adv-x="2048" 
d="M219 256h246v-256h-246v256zM901 256h246v-256h-246v256zM1585 256h246v-256h-246v256z" />
    <glyph glyph-name="nonbreakingspace" unicode="&#xa0;" horiz-adv-x="1583" 
 />
    <glyph glyph-name="Agrave" unicode="&#xc0;" horiz-adv-x="1479" 
d="M725 1178l-215 -566h438zM573 1470h328l627 -1470h-344l-135 350h-639l-131 -350h-328zM753 1609l-350 285h295l199 -285h-144z" />
    <glyph glyph-name="Atilde" unicode="&#xc3;" horiz-adv-x="1479" 
d="M725 1178l-215 -566h438zM573 1470h328l627 -1470h-344l-135 350h-639l-131 -350h-328zM413 1622q24 116 75 173.5t130 57.5q19 0 36 -2t34 -6l129 -33q14 -3 26.5 -4.5t24.5 -1.5q34 0 56.5 19.5t31.5 55.5l101 1q-20 -114 -75.5 -176t-137.5 -62q-16 0 -31 2t-29 6
l-137 35q-9 3 -19.5 4.5t-21.5 1.5q-37 0 -60 -18t-32 -53h-101z" />
    <glyph glyph-name="Otilde" unicode="&#xd5;" horiz-adv-x="1583" 
d="M57 750q0 379 181.5 564t552.5 185q374 0 553.5 -187t179.5 -577t-179.5 -578t-553.5 -188q-378 0 -556 189t-178 592zM791 1247q-199 0 -297.5 -124t-98.5 -375q0 -272 95.5 -398.5t300.5 -126.5q202 0 299.5 125.5t97.5 386.5q0 262 -97.5 387t-299.5 125zM466 1622
q24 116 75 173.5t130 57.5q19 0 36 -2t34 -6l129 -33q14 -3 26.5 -4.5t24.5 -1.5q34 0 56.5 19.5t31.5 55.5l101 1q-20 -114 -75.5 -176t-137.5 -62q-16 0 -31 2t-29 6l-137 35q-9 3 -19.5 4.5t-21.5 1.5q-37 0 -60 -18t-32 -53h-101z" />
    <glyph glyph-name="OE" unicode="&#x152;" horiz-adv-x="2462" 
d="M791 217q208 0 308.5 127t100.5 391t-100 390t-309 126t-308.5 -125.5t-99.5 -390.5t99.5 -391.5t308.5 -126.5zM1835 1214q-167 0 -253 -84t-95 -257l856 -1v-256h-858q1 -192 82 -276t268 -84h508v-256h-522q-169 0 -283 38t-192 120q-133 -97 -268.5 -143t-286.5 -46
q-375 0 -554.5 188t-179.5 578t179.5 577t554.5 187q173 0 302.5 -44.5t252.5 -143.5q84 83 199.5 121t283.5 38h514v-256h-508z" />
    <glyph glyph-name="oe" unicode="&#x153;" horiz-adv-x="1882" 
d="M1409 0q-157 0 -241 33t-140 112q-98 -84 -202.5 -124.5t-221.5 -40.5q-245 0 -399 155.5t-154 403.5q0 254 156 406.5t418 152.5q125 0 224 -41t177 -125q56 78 145.5 112.5t237.5 34.5h416v-225h-379q-155 0 -208.5 -44t-57.5 -159h645v-225h-645q4 -116 53.5 -158.5
t210.5 -42.5h381v-225h-416zM350 539q0 -154 73 -240t202 -86q128 0 200 86t72 240t-71.5 239.5t-200.5 85.5q-128 0 -201.5 -86.5t-73.5 -238.5z" />
    <glyph glyph-name="endash" unicode="&#x2013;" 
d="M0 682h1024v-256h-1024v256z" />
    <glyph glyph-name="emdash" unicode="&#x2014;" horiz-adv-x="2048" 
d="M0 682h2048v-256h-2048v256z" />
    <glyph glyph-name="quotedblleft" unicode="&#x201c;" horiz-adv-x="754" 
d="M428 1470h244v-256h-113v-192q-69 54 -100 115.5t-31 144.5v188zM80 1470h244v-256h-113v-192q-69 54 -100 115.5t-31 144.5v188z" />
    <glyph glyph-name="quotedblright" unicode="&#x201d;" horiz-adv-x="754" 
d="M193 1022v192h-113v256h244v-188q0 -83 -31.5 -144.5t-99.5 -115.5zM541 1022v192h-113v256h244v-188q0 -83 -31 -144.5t-100 -115.5z" />
    <glyph glyph-name="quoteleft" unicode="&#x2018;" horiz-adv-x="406" 
d="M80 1470h244v-256h-113v-192q-69 54 -100 115.5t-31 144.5v188z" />
    <glyph glyph-name="quoteright" unicode="&#x2019;" horiz-adv-x="406" 
d="M195 1022v192h-115v256h246v-188q0 -83 -31.5 -144.5t-99.5 -115.5z" />
    <glyph glyph-name="divide" unicode="&#xf7;" horiz-adv-x="1706" 
d="M854 369q62 0 107 -45t45 -107q0 -61 -45 -105t-107 -44q-63 0 -107.5 43t-44.5 106t44.5 107.5t107.5 44.5zM254 711h1198v-199h-1198v199zM854 1155q62 0 107 -44.5t45 -106.5q0 -63 -44.5 -107.5t-107.5 -44.5t-107.5 44.5t-44.5 107.5t44.5 107t107.5 44z" />
    <glyph glyph-name="lozenge" unicode="&#x25ca;" horiz-adv-x="1012" 
d="M506 1409l-385 -817l385 -825l385 825zM506 1653l500 -1061l-500 -1069l-500 1069z" />
    <glyph glyph-name="ydieresis" unicode="&#xff;" horiz-adv-x="1233" 
d="M586 238h229v841h285v-1050q0 -214 -100 -317t-306 -103h-559v219h510q82 0 126 39.5t44 114.5v18h-252q-242 0 -345 95.5t-103 318.5v665h282v-643q0 -122 36.5 -160t152.5 -38zM671 1481h244v-262h-244v262zM317 1481h244v-262h-244v262z" />
    <glyph glyph-name="Ydieresis" unicode="&#x178;" horiz-adv-x="1270" 
d="M-84 1470h348l363 -561l368 561h359l-568 -821v-649h-309v649zM690 1882h244v-262h-244v262zM336 1882h244v-262h-244v262z" />
    <glyph glyph-name="fraction" unicode="&#x2215;" horiz-adv-x="342" 
d="M-193 -2l572 1470h153l-571 -1470h-154z" />
    <glyph glyph-name="currency" unicode="&#xa4;" horiz-adv-x="1241" 
d="M623 1161q-113 0 -195 -82t-82 -194q0 -114 81 -194.5t196 -80.5q113 0 194.5 80.5t81.5 194.5q0 112 -81.5 194t-194.5 82zM172 1438l205 -203q54 39 114 58.5t130 19.5t131.5 -19.5t115.5 -58.5l203 203l105 -107l-203 -205q38 -53 57 -113.5t19 -127.5t-19 -127
t-57 -115l203 -205l-105 -104l-203 203q-54 -40 -115 -59t-130 -19q-72 0 -132.5 19t-113.5 59l-205 -203l-104 104l202 205q-38 54 -56.5 113.5t-18.5 128.5q0 67 18.5 127.5t56.5 113.5l-202 205z" />
    <glyph glyph-name="guilsinglleft" unicode="&#x2039;" horiz-adv-x="815" 
d="M346 539l352 -355h-311l-334 355l350 356h306z" />
    <glyph glyph-name="guilsinglright" unicode="&#x203a;" horiz-adv-x="815" 
d="M414 541l-353 354h312l336 -354l-353 -357h-305z" />
    <glyph glyph-name="fi" unicode="&#xf001;" horiz-adv-x="1323" 
d="M1190 1202h-299v268h299v-268zM1190 0h-299v1079h299v-1079zM221 864h-205v215h205v111q0 165 61 222.5t234 57.5h270v-208h-135q-73 0 -104 -22.5t-31 -74.5v-86h270v-215h-270v-864h-295v864z" />
    <glyph glyph-name="fl" unicode="&#xf002;" horiz-adv-x="1319" 
d="M1188 0h-299v1470h299v-1470zM221 864h-205v215h205v111q0 165 61 222.5t234 57.5h270v-208h-135q-73 0 -104 -22.5t-31 -74.5v-86h270v-215h-270v-864h-295v864z" />
    <glyph glyph-name="daggerdbl" unicode="&#x2021;" 
d="M358 233h-297v250h297v348h-297v250h297v389h308v-389h297v-250h-297v-348h297v-250h-297v-428h-308v428z" />
    <glyph glyph-name="periodcentered" unicode="&#xb7;" horiz-adv-x="406" 
d="M45 770q0 64 47 111t111 47q65 0 110 -46t45 -112q0 -64 -46 -110t-109 -46q-60 0 -109 48t-49 108z" />
    <glyph glyph-name="quotesinglbase" unicode="&#x201a;" horiz-adv-x="406" 
d="M193 -193v193h-113v256h244v-186q0 -84 -31.5 -146.5t-99.5 -116.5z" />
    <glyph glyph-name="quotedblbase" unicode="&#x201e;" horiz-adv-x="754" 
d="M193 -193v193h-113v256h244v-186q0 -84 -31.5 -146.5t-99.5 -116.5zM541 -193v193h-113v256h244v-186q0 -84 -31.5 -146.5t-99.5 -116.5z" />
    <glyph glyph-name="perthousand" unicode="&#x2030;" horiz-adv-x="2769" 
d="M2339 158q89 0 132.5 56.5t43.5 172.5t-44 173.5t-132 57.5q-89 0 -132.5 -57.5t-43.5 -173.5t43.5 -172.5t132.5 -56.5zM2337 -14q-199 0 -294 98t-95 303q0 206 94.5 303.5t294.5 97.5q199 0 294 -97.5t95 -303.5t-95 -303.5t-294 -97.5zM1458 158q89 0 132.5 56.5
t43.5 172.5t-43.5 173.5t-132.5 57.5t-133.5 -58t-44.5 -173t44.5 -172t133.5 -57zM1456 -14q-199 0 -295 98.5t-96 302.5q0 206 95.5 303.5t295.5 97.5t294.5 -97.5t94.5 -303.5t-94.5 -303.5t-294.5 -97.5zM569 -2l572 1470h159l-571 -1470h-160zM434 844q89 0 132.5 57
t43.5 172q0 116 -43.5 174t-132.5 58q-88 0 -132 -58t-44 -174q0 -115 43.5 -172t132.5 -57zM426 672q-194 0 -288.5 99t-94.5 302q0 206 94.5 304t294.5 98t295.5 -98t95.5 -304q0 -207 -96 -304t-301 -97z" />
    <glyph glyph-name="Acircumflex" unicode="&#xc2;" horiz-adv-x="1479" 
d="M725 1178l-215 -566h438zM573 1470h328l627 -1470h-344l-135 350h-639l-131 -350h-328zM616 1894h238l198 -285h-143l-174 150l-174 -150h-143z" />
    <glyph glyph-name="Ecircumflex" unicode="&#xca;" horiz-adv-x="1384" 
d="M758 1214q-168 0 -253.5 -84t-94.5 -257l856 -1v-256h-858q1 -192 81.5 -276t268.5 -84h508v-256h-523q-173 0 -272 29.5t-186 99.5q-113 90 -169.5 234.5t-56.5 345.5q0 390 169 575.5t524 185.5h514v-256h-508zM665 1894h238l198 -285h-143l-174 150l-174 -150h-143z
" />
    <glyph glyph-name="Aacute" unicode="&#xc1;" horiz-adv-x="1479" 
d="M725 1178l-215 -566h438zM573 1470h328l627 -1470h-344l-135 350h-639l-131 -350h-328zM772 1894h295l-350 -285h-144z" />
    <glyph glyph-name="Edieresis" unicode="&#xcb;" horiz-adv-x="1384" 
d="M758 1214q-168 0 -253.5 -84t-94.5 -257l856 -1v-256h-858q1 -192 81.5 -276t268.5 -84h508v-256h-523q-173 0 -272 29.5t-186 99.5q-113 90 -169.5 234.5t-56.5 345.5q0 390 169 575.5t524 185.5h514v-256h-508zM839 1882h244v-262h-244v262zM485 1882h244v-262h-244
v262z" />
    <glyph glyph-name="Egrave" unicode="&#xc8;" horiz-adv-x="1384" 
d="M758 1214q-168 0 -253.5 -84t-94.5 -257l856 -1v-256h-858q1 -192 81.5 -276t268.5 -84h508v-256h-523q-173 0 -272 29.5t-186 99.5q-113 90 -169.5 234.5t-56.5 345.5q0 390 169 575.5t524 185.5h514v-256h-508zM802 1609l-350 285h295l199 -285h-144z" />
    <glyph glyph-name="Iacute" unicode="&#xcd;" horiz-adv-x="631" 
d="M477 0h-323v1470h323v-1470zM352 1894h295l-350 -285h-144z" />
    <glyph glyph-name="Icircumflex" unicode="&#xce;" horiz-adv-x="631" 
d="M477 0h-323v1470h323v-1470zM196 1894h238l198 -285h-143l-174 150l-174 -150h-143z" />
    <glyph glyph-name="Idieresis" unicode="&#xcf;" horiz-adv-x="631" 
d="M477 0h-323v1470h323v-1470zM370 1882h244v-262h-244v262zM16 1882h244v-262h-244v262z" />
    <glyph glyph-name="Igrave" unicode="&#xcc;" horiz-adv-x="631" 
d="M477 0h-323v1470h323v-1470zM333 1609l-350 285h295l199 -285h-144z" />
    <glyph glyph-name="Oacute" unicode="&#xd3;" horiz-adv-x="1583" 
d="M57 750q0 379 181.5 564t552.5 185q374 0 553.5 -187t179.5 -577t-179.5 -578t-553.5 -188q-378 0 -556 189t-178 592zM791 1247q-199 0 -297.5 -124t-98.5 -375q0 -272 95.5 -398.5t300.5 -126.5q202 0 299.5 125.5t97.5 386.5q0 262 -97.5 387t-299.5 125zM825 1894
h295l-350 -285h-144z" />
    <glyph glyph-name="Ocircumflex" unicode="&#xd4;" horiz-adv-x="1583" 
d="M57 750q0 379 181.5 564t552.5 185q374 0 553.5 -187t179.5 -577t-179.5 -578t-553.5 -188q-378 0 -556 189t-178 592zM791 1247q-199 0 -297.5 -124t-98.5 -375q0 -272 95.5 -398.5t300.5 -126.5q202 0 299.5 125.5t97.5 386.5q0 262 -97.5 387t-299.5 125zM669 1894
h238l198 -285h-143l-174 150l-174 -150h-143z" />
    <glyph glyph-name="apple" unicode="&#xf000;" horiz-adv-x="1618" 
d="M836 1216q-1 6 -1.5 14t-0.5 23q0 124 95 229.5t236 131.5q1 -10 1.5 -23t0.5 -39q0 -131 -103.5 -234.5t-203.5 -103.5h-8q-3 0 -7.5 1t-8.5 1zM1505 403q-114 -247 -205 -342.5t-204 -95.5q-50 0 -131.5 33t-122.5 33q-45 0 -131 -33t-127 -33q-64 0 -128.5 44
t-129.5 132q-102 140 -157.5 295.5t-55.5 300.5q0 219 125 356.5t323 137.5q68 0 155 -34t124 -34q34 0 121.5 35t152.5 35q110 0 198 -40t161 -124q-102 -65 -151.5 -145.5t-49.5 -182.5q0 -113 60 -200t173 -138z" />
    <glyph glyph-name="Ograve" unicode="&#xd2;" horiz-adv-x="1583" 
d="M57 750q0 379 181.5 564t552.5 185q374 0 553.5 -187t179.5 -577t-179.5 -578t-553.5 -188q-378 0 -556 189t-178 592zM791 1247q-199 0 -297.5 -124t-98.5 -375q0 -272 95.5 -398.5t300.5 -126.5q202 0 299.5 125.5t97.5 386.5q0 262 -97.5 387t-299.5 125zM806 1609
l-350 285h295l199 -285h-144z" />
    <glyph glyph-name="Uacute" unicode="&#xda;" horiz-adv-x="1573" 
d="M455 1470v-880q0 -206 74.5 -287.5t256.5 -81.5t256 81t74 288v880h309v-888q0 -156 -20.5 -249t-65.5 -147q-88 -104 -221.5 -153t-331.5 -49t-332.5 49t-222.5 153q-44 53 -64 143t-20 253v888h308zM823 1894h295l-350 -285h-144z" />
    <glyph glyph-name="Ucircumflex" unicode="&#xdb;" horiz-adv-x="1573" 
d="M455 1470v-880q0 -206 74.5 -287.5t256.5 -81.5t256 81t74 288v880h309v-888q0 -156 -20.5 -249t-65.5 -147q-88 -104 -221.5 -153t-331.5 -49t-332.5 49t-222.5 153q-44 53 -64 143t-20 253v888h308zM667 1894h238l198 -285h-143l-174 150l-174 -150h-143z" />
    <glyph glyph-name="Ugrave" unicode="&#xd9;" horiz-adv-x="1573" 
d="M455 1470v-880q0 -206 74.5 -287.5t256.5 -81.5t256 81t74 288v880h309v-888q0 -156 -20.5 -249t-65.5 -147q-88 -104 -221.5 -153t-331.5 -49t-332.5 49t-222.5 153q-44 53 -64 143t-20 253v888h308zM804 1609l-350 285h295l199 -285h-144z" />
    <glyph glyph-name="dotlessi" unicode="&#x131;" horiz-adv-x="545" 
d="M422 0h-299v1079h299v-1079z" />
    <glyph glyph-name="circumflex" unicode="&#x2c6;" 
d="M393 1493h238l198 -285h-143l-174 150l-174 -150h-143z" />
    <glyph glyph-name="tilde" unicode="&#x2dc;" 
d="M190 1221q24 116 75 173.5t130 57.5q19 0 36 -2t34 -6l129 -33q14 -3 26.5 -4.5t24.5 -1.5q34 0 56.5 19.5t31.5 55.5l101 1q-20 -114 -75.5 -176t-137.5 -62q-16 0 -31 2t-29 6l-137 35q-9 3 -19.5 4.5t-21.5 1.5q-37 0 -60 -18t-32 -53h-101z" />
    <glyph glyph-name="macron" unicode="&#xaf;" 
d="M213 1432h598v-162h-598v162z" />
    <glyph glyph-name="breve" unicode="&#x2d8;" 
d="M330 1493q10 -64 54 -93.5t128 -29.5t128.5 30t53.5 92l133 1q-15 -147 -91 -216t-224 -69q-146 0 -223 69.5t-92 215.5h133z" />
    <glyph glyph-name="dotaccent" unicode="&#x2d9;" 
d="M387 1487h250v-273h-250v273z" />
    <glyph glyph-name="ring" unicode="&#x2da;" 
d="M514 1513q-37 0 -62.5 -24.5t-25.5 -61.5q0 -35 25.5 -60.5t62.5 -25.5q36 0 61 25.5t25 60.5q0 38 -24 62t-62 24zM285 1430q0 95 66 161t161 66t162 -67t67 -160q0 -97 -67 -164.5t-162 -67.5t-161 67.5t-66 164.5z" />
    <glyph glyph-name="cedilla" unicode="&#xb8;" 
d="M285 -281q80 -20 146 -30.5t112 -10.5q41 0 60.5 16t19.5 50q0 31 -26.5 44t-88.5 13q-20 0 -31 -0.5t-20 -1.5v211h110v-94h15q107 0 164 -45t57 -129q0 -91 -62.5 -141t-177.5 -50q-57 0 -127.5 11t-150.5 32v125z" />
    <glyph glyph-name="hungarumlaut" unicode="&#x2dd;" 
d="M735 1493h262l-313 -285h-111zM401 1493h250l-282 -285h-97z" />
    <glyph glyph-name="ogonek" unicode="&#x2db;" 
d="M586 -244h100v-176h-72q-148 0 -211 42t-63 138q0 69 45 130.5t139 119.5h105q-60 -52 -87.5 -95t-27.5 -85q0 -37 17.5 -55.5t54.5 -18.5z" />
    <glyph glyph-name="caron" unicode="&#x2c7;" 
d="M338 1493l174 -150l174 150h143l-198 -285h-238l-198 285h143z" />
    <glyph glyph-name="Lslash" unicode="&#x141;" horiz-adv-x="1157" 
d="M754 0q-204 0 -304.5 34.5t-181.5 119.5q-71 75 -101 169t-30 250l-119 -90v195l119 88v704h307v-520l287 215v-196l-287 -213v-123q0 -144 12.5 -201t41.5 -92q43 -52 106.5 -74t175.5 -22h365v-244h-391z" />
    <glyph glyph-name="lslash" unicode="&#x142;" horiz-adv-x="563" 
d="M430 950l121 90v-209l-121 -88v-743h-297v565l-119 -88v205l119 90v698h297v-520z" />
    <glyph glyph-name="Scaron" unicode="&#x160;" horiz-adv-x="1546" 
d="M1395 1208h-764q-123 0 -180.5 -46t-57.5 -146q0 -80 49 -120t146 -40h409q254 0 361.5 -96t107.5 -320q0 -227 -124 -333.5t-390 -106.5h-823v262h774q132 0 186 38.5t54 127.5q0 92 -49.5 131t-169.5 39h-365q-254 0 -371.5 101.5t-117.5 320.5q0 234 123.5 342
t392.5 108h809v-262zM600 1894l174 -150l174 150h143l-198 -285h-238l-198 285h143z" />
    <glyph glyph-name="scaron" unicode="&#x161;" horiz-adv-x="1217" 
d="M106 225h601q80 0 116.5 25t36.5 80t-37 80.5t-116 25.5h-246q-219 0 -296 67t-77 238q0 174 93 256t288 82h612v-225h-503q-123 0 -160 -21.5t-37 -76.5q0 -50 32.5 -73.5t102.5 -23.5h258q177 0 270 -82.5t93 -238.5q0 -150 -82.5 -244t-212.5 -94h-736v225zM434 1493
l174 -150l174 150h143l-198 -285h-238l-198 285h143z" />
    <glyph glyph-name="Zcaron" unicode="&#x17d;" horiz-adv-x="1503" 
d="M1358 1208l-828 -948h828v-260h-1241v260l839 948h-839v262h1241v-262zM578 1894l174 -150l174 150h143l-198 -285h-238l-198 285h143z" />
    <glyph glyph-name="zcaron" unicode="&#x17e;" horiz-adv-x="1196" 
d="M92 231l639 615h-639v233h1012v-233l-639 -615h639v-231h-1012v231zM424 1493l174 -150l174 150h143l-198 -285h-238l-198 285h143z" />
    <glyph glyph-name="brokenbar" unicode="&#xa6;" 
d="M410 408h206v-758h-206v758zM410 1432h206v-758h-206v758z" />
    <glyph glyph-name="Eth" unicode="&#xd0;" horiz-adv-x="1597" 
d="M846 256q205 0 282.5 103t77.5 376q0 272 -78 375.5t-282 103.5h-367v-389h346v-157h-346v-412h367zM170 668h-152v157h152v645h674q355 0 524.5 -185.5t169.5 -575.5q0 -201 -56 -345.5t-169 -234.5q-87 -69 -186.5 -99t-274.5 -30h-682v668z" />
    <glyph glyph-name="eth" unicode="&#xf0;" horiz-adv-x="1251" 
d="M350 510q0 -138 72.5 -215.5t200.5 -77.5q129 0 201.5 77.5t72.5 215.5t-72.5 215.5t-201.5 77.5q-127 0 -200 -78t-73 -215zM569 1196l-366 -92l-33 125l274 69l-225 172h307q50 -24 94 -51t80 -55l369 92l31 -125l-269 -67q178 -149 271.5 -336t93.5 -393
q0 -259 -152.5 -406t-418.5 -147q-262 0 -418 144t-156 384q0 225 143.5 375.5t354.5 150.5q47 0 96 -11t100 -34q-45 77 -88 126.5t-88 78.5z" />
    <glyph glyph-name="Yacute" unicode="&#xdd;" horiz-adv-x="1270" 
d="M-84 1470h348l363 -561l368 561h359l-568 -821v-649h-309v649zM672 1894h295l-350 -285h-144z" />
    <glyph glyph-name="yacute" unicode="&#xfd;" horiz-adv-x="1233" 
d="M586 238h229v841h285v-1050q0 -214 -100 -317t-306 -103h-559v219h510q82 0 126 39.5t44 114.5v18h-252q-242 0 -345 95.5t-103 318.5v665h282v-643q0 -122 36.5 -160t152.5 -38zM653 1493h295l-350 -285h-144z" />
    <glyph glyph-name="Thorn" unicode="&#xde;" horiz-adv-x="1526" 
d="M461 930v-338h377q139 0 207.5 42t68.5 128q0 91 -66 129.5t-229 38.5h-358zM461 0h-309v1470h309v-280h362q168 0 270.5 -16t161.5 -50q100 -57 151.5 -149t51.5 -215q0 -119 -42 -204t-128 -140q-73 -46 -169.5 -66t-282.5 -20h-375v-330z" />
    <glyph glyph-name="thorn" unicode="&#xfe;" horiz-adv-x="1251" 
d="M410 846v-615h174q173 0 245 73t72 243q0 164 -66 231.5t-229 67.5h-196zM410 -391h-291v1861h291v-391h264q248 0 387 -146t139 -407q0 -107 -29 -196.5t-88 -163.5q-70 -89 -168 -127.5t-260 -38.5h-245v-391z" />
    <glyph glyph-name="minus" unicode="&#x2212;" horiz-adv-x="1706" 
d="M254 713h1198v-203h-1198v203z" />
    <glyph glyph-name="multiply" unicode="&#xd7;" horiz-adv-x="1706" 
d="M416 1202l450 -450l451 450l141 -139l-450 -453l450 -450l-141 -140l-451 451l-450 -451l-140 140l451 450l-451 453z" />
    <glyph glyph-name="onesuperior" unicode="&#xb9;" horiz-adv-x="356" 
d="M72 1470h213v-882h-213v882z" />
    <glyph glyph-name="twosuperior" unicode="&#xb2;" horiz-adv-x="920" 
d="M37 854q0 138 78 198t258 60h131q89 0 123.5 23t34.5 77q0 59 -33 82t-125 23h-467v153h555q72 0 110 -7t68 -23q61 -33 91 -90t30 -140q0 -125 -75 -190.5t-218 -65.5h-182q-87 0 -123.5 -29t-36.5 -98v-88h631v-151h-850v266z" />
    <glyph glyph-name="threesuperior" unicode="&#xb3;" horiz-adv-x="854" 
d="M18 739h400q82 0 119.5 26t37.5 83q0 54 -38.5 80t-118.5 26h-324v152h318q82 0 120.5 25.5t38.5 80.5t-39 81t-120 26h-394v151h465q165 0 243.5 -57.5t78.5 -177.5q0 -61 -32 -111t-99 -94q68 -33 99.5 -82.5t31.5 -124.5q0 -112 -79 -173.5t-222 -61.5h-486v151z" />
    <glyph glyph-name="onehalf" unicode="&#xbd;" horiz-adv-x="1561" 
d="M719 248q0 129 73.5 185t243.5 56h125q86 0 120 21.5t34 73.5q0 54 -32.5 76t-121.5 22h-442v141h528q69 0 105 -6t63 -20q59 -31 88 -84.5t29 -130.5q0 -118 -71 -179t-208 -61h-176q-82 0 -115.5 -27t-33.5 -92v-80h600v-143h-809v248zM147 -2l572 1470h153l-571 -1470
h-154zM68 1468h204v-823h-204v823z" />
    <glyph glyph-name="onequarter" unicode="&#xbc;" horiz-adv-x="1679" 
d="M1319 647l-375 -356h375v356zM1319 150h-596v159l543 516h247v-534h125v-141h-125v-150h-194v150zM147 -2l572 1470h153l-571 -1470h-154zM68 1468h204v-823h-204v823z" />
    <glyph glyph-name="threequarters" unicode="&#xbe;" horiz-adv-x="2154" 
d="M1794 647l-375 -356h375v356zM1794 150h-596v159l543 516h248v-534h125v-141h-125v-150h-195v150zM623 -2l571 1470h154l-572 -1470h-153zM16 786h383q78 0 114 24.5t36 76.5q0 51 -36.5 75.5t-113.5 24.5h-309v141h303q78 0 115 24t37 75q0 52 -36.5 76t-115.5 24h-377
v141h447q155 0 228 -53t73 -166q0 -58 -29.5 -104.5t-91.5 -85.5q64 -31 92.5 -77t28.5 -118q0 -105 -73 -162t-210 -57h-465v141z" />
    <glyph glyph-name="franc" unicode="&#x20a3;" horiz-adv-x="2351" 
d="M141 676q0 281 34 412.5t116 214.5q84 85 224 126t349 41h471v-256h-497q-201 0 -292.5 -84.5t-94.5 -272.5l884 -1v-254h-884v-602h-310v676zM1512 1079h479q168 0 235.5 -60.5t67.5 -211.5v-180h-272v139q0 63 -22.5 84.5t-102.5 21.5h-100v-872h-285v1079z" />
    <glyph glyph-name="Gbreve" unicode="&#x11e;" horiz-adv-x="1520" 
d="M686 612v260h731v-872h-665q-184 0 -282.5 30t-184.5 99q-113 90 -169.5 234.5t-56.5 345.5q0 389 169.5 575t523.5 186h665v-253h-665q-182 0 -265.5 -118t-83.5 -376q0 -241 83 -349t266 -108h348v346h-414zM578 1894q10 -64 54 -93.5t128 -29.5t128.5 30t53.5 92
l133 1q-15 -147 -91 -216t-224 -69q-146 0 -223 69.5t-92 215.5h133z" />
    <glyph glyph-name="gbreve" unicode="&#x11f;" horiz-adv-x="1249" 
d="M700 223h148v625h-148q-107 0 -150 -8t-75 -27q-66 -40 -96.5 -105.5t-30.5 -170.5q0 -173 77 -243.5t275 -70.5zM1135 39q0 -222 -99 -326t-309 -104h-559v219h510q82 0 126 39.5t44 114.5v18h-232q-180 0 -259 27t-146 92q-77 73 -118.5 182t-41.5 236
q0 125 41.5 233.5t118.5 181.5q69 68 162 97.5t243 29.5h519v-1040zM443 1493q10 -64 54 -93.5t128 -29.5t128.5 30t53.5 92l133 1q-15 -147 -91 -216t-224 -69q-146 0 -223 69.5t-92 215.5h133z" />
    <glyph glyph-name="Idotaccent" unicode="&#x130;" horiz-adv-x="631" 
d="M477 0h-323v1470h323v-1470zM190 1888h250v-273h-250v273z" />
    <glyph glyph-name="Scedilla" unicode="&#x15e;" horiz-adv-x="1546" 
d="M1395 1208h-764q-123 0 -180.5 -46t-57.5 -146q0 -80 49 -120t146 -40h409q254 0 361.5 -96t107.5 -320q0 -227 -124 -333.5t-390 -106.5h-823v262h774q132 0 186 38.5t54 127.5q0 92 -49.5 131t-169.5 39h-365q-254 0 -371.5 101.5t-117.5 320.5q0 234 123.5 342
t392.5 108h809v-262zM547 -281q80 -20 146 -30.5t112 -10.5q41 0 60.5 16t19.5 50q0 31 -26.5 44t-88.5 13q-20 0 -31 -0.5t-20 -1.5v211h110v-94h15q107 0 164 -45t57 -129q0 -91 -62.5 -141t-177.5 -50q-57 0 -127.5 11t-150.5 32v125z" />
    <glyph glyph-name="scedilla" unicode="&#x15f;" horiz-adv-x="1217" 
d="M106 225h601q80 0 116.5 25t36.5 80t-37 80.5t-116 25.5h-246q-219 0 -296 67t-77 238q0 174 93 256t288 82h612v-225h-503q-123 0 -160 -21.5t-37 -76.5q0 -50 32.5 -73.5t102.5 -23.5h258q177 0 270 -82.5t93 -238.5q0 -150 -82.5 -244t-212.5 -94h-736v225zM381 -281
q80 -20 146 -30.5t112 -10.5q41 0 60.5 16t19.5 50q0 31 -26.5 44t-88.5 13q-20 0 -31 -0.5t-20 -1.5v211h110v-94h15q107 0 164 -45t57 -129q0 -91 -62.5 -141t-177.5 -50q-57 0 -127.5 11t-150.5 32v125z" />
    <glyph glyph-name="Cacute" unicode="&#x106;" horiz-adv-x="1341" 
d="M758 1219q-192 0 -276.5 -122t-84.5 -401q0 -242 81 -341t280 -99h508v-256h-523q-173 0 -272 29.5t-186 99.5q-113 90 -169.5 234.5t-56.5 345.5q0 390 169 575.5t524 185.5h514v-251h-508zM750 1894h295l-350 -285h-144z" />
    <glyph glyph-name="cacute" unicode="&#x107;" horiz-adv-x="1079" 
d="M711 231h303v-231h-387q-147 0 -241.5 30.5t-164.5 98.5q-75 74 -117.5 180.5t-42.5 225.5q0 125 42 233.5t118 181.5q71 68 166.5 98.5t239.5 30.5h387v-233h-303q-201 0 -277 -69.5t-76 -241.5q0 -99 31 -164t96 -105q32 -19 74.5 -27t151.5 -8zM610 1493h295
l-350 -285h-144z" />
    <glyph glyph-name="Ccaron" unicode="&#x10c;" horiz-adv-x="1341" 
d="M758 1219q-192 0 -276.5 -122t-84.5 -401q0 -242 81 -341t280 -99h508v-256h-523q-173 0 -272 29.5t-186 99.5q-113 90 -169.5 234.5t-56.5 345.5q0 390 169 575.5t524 185.5h514v-251h-508zM539 1894l174 -150l174 150h143l-198 -285h-238l-198 285h143z" />
    <glyph glyph-name="ccaron" unicode="&#x10d;" horiz-adv-x="1079" 
d="M711 231h303v-231h-387q-147 0 -241.5 30.5t-164.5 98.5q-75 74 -117.5 180.5t-42.5 225.5q0 125 42 233.5t118 181.5q71 68 166.5 98.5t239.5 30.5h387v-233h-303q-201 0 -277 -69.5t-76 -241.5q0 -99 31 -164t96 -105q32 -19 74.5 -27t151.5 -8zM399 1493l174 -150
l174 150h143l-198 -285h-238l-198 285h143z" />
    <glyph glyph-name="dcroat" unicode="&#x111;" horiz-adv-x="1266" 
d="M643 231h195v600h-172q-172 0 -245 -72.5t-73 -236.5q0 -157 66 -224t229 -67zM575 0q-247 0 -386.5 144.5t-139.5 398.5q0 104 29.5 193t87.5 163q71 89 168 127.5t260 38.5h244v133h-275v156h275v116h284v-116h125v-156h-125v-1198h-547z" />
    <glyph glyph-name="periodcentered" unicode="&#x2219;" horiz-adv-x="406" 
d="M45 770q0 64 47 111t111 47q65 0 110 -46t45 -112q0 -64 -46 -110t-109 -46q-60 0 -109 48t-49 108z" />
    <glyph glyph-name="sfthyphen" unicode="&#xad;" horiz-adv-x="793" 
d="M51 682h688v-256h-688v256z" />
    </font>
</defs>
</svg>
